<?xml version="1.0" standalone="no"?>
<!DOCTYPE svg PUBLIC "-//W3C//DTD SVG 1.1//EN" "http://www.w3.org/Graphics/SVG/1.1/DTD/svg11.dtd" >
<svg xmlns="http://www.w3.org/2000/svg">
<metadata>Generated by IcoMoon</metadata>
<defs>
<font id="fluentform" horiz-adv-x="1024">
<font-face units-per-em="1024" ascent="960" descent="-64" />
<missing-glyph horiz-adv-x="1024" />
<glyph unicode="&#x20;" horiz-adv-x="512" d="" />
<glyph unicode="&#xe900;" glyph-name="payment" d="M128 512h768c23.565 0 42.667-19.102 42.667-42.667v-256c0-70.694-57.306-128-128-128h-597.333c-70.692 0-128 57.306-128 128v256c0 23.565 19.103 42.667 42.667 42.667zM213.333 341.334c-23.564 0-42.667-19.102-42.667-42.667s19.103-42.667 42.667-42.667h256c23.565 0 42.667 19.102 42.667 42.667s-19.102 42.667-42.667 42.667h-256zM85.333 640c0 70.692 57.308 128 128 128h597.333c70.694 0 128-57.308 128-128v0c0-23.564-19.102-42.667-42.667-42.667h-768c-23.564 0-42.667 19.103-42.667 42.667v0z" />
<glyph unicode="&#xe901;" glyph-name="play-circle-filled" d="M512-0c-235.642 0-426.667 191.027-426.667 426.667 0 235.642 191.025 426.667 426.667 426.667 235.639 0 426.667-191.025 426.667-426.667 0-235.639-191.027-426.667-426.667-426.667zM656.738 352.768c56.887 32.845 56.887 114.957 0 147.802l-187.405 108.198c-56.889 32.845-128-8.212-128-73.901v-216.398c0-65.69 71.111-106.743 128-73.899l187.405 108.198z" />
<glyph unicode="&#xe902;" glyph-name="user-filled" d="M938.667 426.667c0-235.639-191.027-426.667-426.667-426.667-235.642 0-426.667 191.027-426.667 426.667 0 235.642 191.025 426.667 426.667 426.667 235.639 0 426.667-191.025 426.667-426.667zM755.785 238.908c13.99-14.272 13.99-36.881-0.004-51.157-61.948-63.202-148.284-102.417-243.776-102.417-95.498 0-181.835 39.215-243.786 102.426-13.991 14.272-13.99 36.881 0 51.157 61.951 63.202 148.285 102.417 243.782 102.417s181.833-39.219 243.785-102.426zM512 426.667c70.694 0 128 57.306 128 128 0 70.692-57.306 128-128 128s-128-57.308-128-128c0-70.694 57.306-128 128-128z" />
<glyph unicode="&#xe903;" glyph-name="promotion" d="M428.988 838.642c47.838 40.77 118.204 40.77 166.046 0l54.246-46.231c6.835-5.824 15.33-9.343 24.282-10.057l71.049-5.67c62.66-5 112.414-54.755 117.414-117.412l5.67-71.050c0.713-8.95 4.233-17.447 10.057-24.28l46.229-54.249c40.772-47.842 40.772-118.204 0-166.046l-46.229-54.251c-5.824-6.831-9.344-15.33-10.057-24.277l-5.67-71.053c-5.001-62.656-54.754-112.414-117.414-117.41l-71.049-5.67c-8.951-0.717-17.446-4.237-24.282-10.057l-54.246-46.234c-47.842-40.768-118.208-40.768-166.046 0l-54.251 46.234c-6.834 5.82-15.331 9.34-24.28 10.057l-71.050 5.67c-62.657 4.996-112.412 54.754-117.412 117.41l-5.67 71.053c-0.714 8.947-4.234 17.446-10.057 24.277l-46.231 54.251c-40.77 47.842-40.77 118.204 0 166.046l46.231 54.249c5.824 6.833 9.343 15.33 10.057 24.28l5.67 71.050c5 62.657 54.755 112.412 117.412 117.412l71.050 5.67c8.95 0.714 17.446 4.233 24.28 10.057l54.251 46.231zM362.677 512.003c35.346 0 63.998 28.654 63.998 64s-28.652 64-63.998 64c-35.346 0-64-28.654-64-64s28.654-64 64-64zM725.342 277.338c0-35.349-28.651-64-64-64-35.345 0-64 28.651-64 64 0 35.345 28.655 64 64 64 35.349 0 64-28.655 64-64zM687.014 570.021c15.087 18.103 12.638 45.007-5.461 60.092-18.103 15.085-45.009 12.64-60.092-5.463l-284.446-341.334c-15.086-18.103-12.64-45.005 5.463-60.092 18.103-15.083 45.007-12.638 60.092 5.466l284.444 341.331z" />
<glyph unicode="&#xe904;" glyph-name="share-filled" d="M768 85.334c-70.694 0-128 57.306-128 128 0 30.98 11.008 59.388 29.321 81.532l-131.806 219.678c-8.247-1.667-16.777-2.543-25.515-2.543s-17.271 0.876-25.515 2.543l-131.807-219.678c18.316-22.144 29.321-50.551 29.321-81.532 0-70.694-57.308-128-128-128s-128 57.306-128 128c0 70.694 57.307 128 128 128 8.738 0 17.272-0.875 25.519-2.543l131.805 219.675c-18.317 22.143-29.324 50.553-29.324 81.535 0 70.692 57.306 128 128 128s128-57.308 128-128c0-30.982-11.008-59.392-29.325-81.535l131.806-219.675c8.247 1.668 16.781 2.543 25.519 2.543 70.694 0 128-57.306 128-128s-57.306-128-128-128z" />
<glyph unicode="&#xe905;" glyph-name="warning-filled" d="M400.783 743.522c49.103 86.165 173.314 86.165 222.419 0l290.347-509.483c48.627-85.329-12.996-191.373-111.211-191.373h-580.691c-98.215 0-159.838 106.044-111.209 191.373l290.345 509.483zM511.991 341.334c23.565 0 42.667 19.102 42.667 42.667v213.332c0 23.564-19.102 42.667-42.667 42.667s-42.667-19.103-42.667-42.667v-213.332c0-23.565 19.102-42.667 42.667-42.667zM511.991 170.667c23.565 0 42.667 19.102 42.667 42.667 0 23.561-19.102 42.667-42.667 42.667s-42.667-19.106-42.667-42.667c0-23.565 19.102-42.667 42.667-42.667z" />
<glyph unicode="&#xe906;" glyph-name="more-vertical" d="M597.333 682.667c0-47.128-38.204-85.333-85.333-85.333s-85.333 38.205-85.333 85.333c0 47.128 38.204 85.333 85.333 85.333s85.333-38.205 85.333-85.333zM597.333 426.667c0-47.13-38.204-85.333-85.333-85.333s-85.333 38.204-85.333 85.333c0 47.13 38.204 85.333 85.333 85.333s85.333-38.204 85.333-85.333zM597.333 170.667c0-47.13-38.204-85.333-85.333-85.333s-85.333 38.204-85.333 85.333c0 47.13 38.204 85.333 85.333 85.333s85.333-38.204 85.333-85.333z" />
<glyph unicode="&#xe907;" glyph-name="gift" d="M512 746.667l50.726 63.407c21.875 27.343 54.989 43.26 90.005 43.26h8.602c58.91 0 106.667-47.756 106.667-106.667 0-7.306-0.734-14.44-2.133-21.333h44.8c70.694 0 128-57.308 128-128v-42.667c0-37.909-16.482-71.97-42.667-95.407v-331.26c0-70.694-57.306-128-128-128h-512c-70.692 0-128 57.306-128 128v331.26c-26.187 23.437-42.667 57.498-42.667 95.407v42.667c0 70.692 57.308 128 128 128h44.8c-1.399 6.893-2.134 14.028-2.134 21.333 0 58.91 47.756 106.667 106.667 106.667h8.6c35.016 0 68.132-15.917 90.007-43.26l50.726-63.407zM604.211 725.334h57.122c11.78 0 21.333 9.551 21.333 21.333s-9.553 21.333-21.333 21.333h-8.602c-9.092 0-17.694-4.134-23.373-11.234l-25.148-31.433zM213.333 640c-23.564 0-42.667-19.103-42.667-42.667v-42.667c0-23.564 19.103-42.667 42.667-42.667h256v128h-256zM554.667 640v-128h256c23.565 0 42.667 19.103 42.667 42.667v42.667c0 23.564-19.102 42.667-42.667 42.667h-256zM341.333 746.667c0-11.782 9.551-21.333 21.333-21.333h57.12l-25.146 31.433c-5.681 7.101-14.281 11.234-23.374 11.234h-8.6c-11.782 0-21.333-9.551-21.333-21.333zM213.333 426.667v-298.667c0-23.565 19.103-42.667 42.667-42.667h213.333v341.333h-256zM554.667 85.334h213.333c23.565 0 42.667 19.102 42.667 42.667v298.667h-256v-341.333z" />
<glyph unicode="&#xe908;" glyph-name="cursor" d="M576.644 429.214l244.378-61.094c18.995-4.749 32.32-21.815 32.32-41.391v-198.729c0-23.565-19.102-42.667-42.667-42.667h-475.089c-16.14 0-30.897 9.105-38.135 23.531l-115.384 229.973c-2.927 5.833-3.412 12.587-1.348 18.778 6.457 19.375 32.36 22.865 43.714 5.892l46.575-69.623c20.895-31.232 59.762-45.12 95.719-34.202s60.541 44.075 60.541 81.651v384.296c0 23.401 18.97 42.371 42.368 42.371 23.403 0 42.372-18.97 42.372-42.371v-213.629c0-39.155 26.65-73.289 64.636-82.786zM256.601 446.631c-56.473 30.703-133.95 6.63-156.836-62.029-9.233-27.699-7.063-57.937 6.031-84.032l115.384-229.973c21.713-43.277 65.988-70.596 114.407-70.596h475.089c70.694 0 128 57.306 128 128v198.729c0 58.735-39.974 109.931-96.956 124.177l-244.378 61.094v213.629c0 70.529-57.173 127.704-127.706 127.704-70.527 0-127.702-57.175-127.702-127.704v-384.296l-46.575 69.623c-10.561 15.787-23.936 27.614-38.758 35.674z" />
<glyph unicode="&#xe909;" glyph-name="hash" d="M460.727 808.724c22.49-7.029 35.025-30.959 27.998-53.451l-36.023-115.273h251.93l43.977 140.725c7.031 22.492 30.963 35.027 53.453 27.998s35.025-30.959 27.998-53.451l-36.023-115.273h80.631c23.565 0 42.667-19.103 42.667-42.667s-19.102-42.667-42.667-42.667h-107.298l-80-256h101.965c23.565 0 42.667-19.102 42.667-42.667s-19.102-42.667-42.667-42.667h-128.631l-43.977-140.727c-7.027-22.49-30.959-35.025-53.453-27.998-22.49 7.027-35.025 30.959-27.998 53.453l36.023 115.273h-251.929l-43.977-140.727c-7.028-22.49-30.959-35.025-53.451-27.998s-35.027 30.959-27.998 53.453l36.023 115.273h-80.633c-23.564 0-42.667 19.102-42.667 42.667s19.103 42.667 42.667 42.667h107.3l80 256h-101.967c-23.564 0-42.667 19.103-42.667 42.667s19.103 42.667 42.667 42.667h128.633l43.977 140.725c7.029 22.492 30.961 35.027 53.451 27.998zM597.965 298.667l80 256h-251.929l-80-256h251.929z" />
<glyph unicode="&#xe90a;" glyph-name="photo" d="M682.667 512c47.13 0 85.333 38.205 85.333 85.333s-38.204 85.333-85.333 85.333c-47.13 0-85.333-38.205-85.333-85.333s38.204-85.333 85.333-85.333zM85.333 725.334v-597.333c0-70.694 57.308-128 128-128h597.333c70.694 0 128 57.306 128 128v597.333c0 70.692-57.306 128-128 128h-597.333c-70.692 0-128-57.308-128-128zM213.333 768h597.333c23.565 0 42.667-19.102 42.667-42.667v-597.333c0-9.724-3.251-18.688-8.73-25.86-1.306 1.741-2.722 3.443-4.245 5.107l-389.414 424.812c-52.362 57.124-143.076 54.983-192.686-4.549l-87.591-105.11v302.933c0 23.564 19.102 42.667 42.667 42.667zM170.667 289.105l153.146 183.774c16.536 19.844 46.775 20.561 64.229 1.519l356.64-389.065h-531.349c-23.564 0-42.667 19.102-42.667 42.667v161.105z" />
<glyph unicode="&#xe90b;" glyph-name="italic-light" d="M598.242 810.667h105.758c23.565 0 42.667-19.103 42.667-42.667s-19.102-42.667-42.667-42.667h-73.353l-149.333-597.333h73.353c23.565 0 42.667-19.102 42.667-42.667s-19.102-42.667-42.667-42.667h-127.057c-0.606-0.013-1.213-0.013-1.821 0h-105.789c-23.564 0-42.667 19.102-42.667 42.667s19.103 42.667 42.667 42.667h73.353l149.333 597.333h-73.353c-23.565 0-42.667 19.103-42.667 42.667s19.102 42.667 42.667 42.667h127.027c0.627 0.014 1.25 0.014 1.882 0z" />
<glyph unicode="&#xe90c;" glyph-name="keyboard" d="M810.667 640c23.565 0 42.667-19.103 42.667-42.667v-341.333c0-23.565-19.102-42.667-42.667-42.667h-597.333c-23.564 0-42.667 19.102-42.667 42.667v341.333c0 23.564 19.103 42.667 42.667 42.667h597.333zM213.333 725.334c-70.692 0-128-57.308-128-128v-341.333c0-70.694 57.308-128 128-128h597.333c70.694 0 128 57.306 128 128v341.333c0 70.692-57.306 128-128 128h-597.333zM341.333 298.667c0 23.565 19.103 42.667 42.667 42.667h256c23.565 0 42.667-19.102 42.667-42.667s-19.102-42.667-42.667-42.667h-256c-23.564 0-42.667 19.102-42.667 42.667zM213.333 554.667c0 23.564 19.103 42.667 42.667 42.667v0c23.564 0 42.667-19.103 42.667-42.667v0c0-23.564-19.103-42.667-42.667-42.667v0c-23.564 0-42.667 19.103-42.667 42.667v0zM213.333 426.667c0 23.565 19.103 42.667 42.667 42.667v0c23.564 0 42.667-19.102 42.667-42.667v0c0-23.565-19.103-42.667-42.667-42.667v0c-23.564 0-42.667 19.102-42.667 42.667v0zM341.333 426.667c0 23.565 19.103 42.667 42.667 42.667v0c23.564 0 42.667-19.102 42.667-42.667v0c0-23.565-19.103-42.667-42.667-42.667v0c-23.564 0-42.667 19.102-42.667 42.667v0zM469.333 426.667c0 23.565 19.102 42.667 42.667 42.667v0c23.565 0 42.667-19.102 42.667-42.667v0c0-23.565-19.102-42.667-42.667-42.667v0c-23.565 0-42.667 19.102-42.667 42.667v0zM597.333 426.667c0 23.565 19.102 42.667 42.667 42.667v0c23.565 0 42.667-19.102 42.667-42.667v0c0-23.565-19.102-42.667-42.667-42.667v0c-23.565 0-42.667 19.102-42.667 42.667v0zM725.333 426.667c0 23.565 19.102 42.667 42.667 42.667v0c23.565 0 42.667-19.102 42.667-42.667v0c0-23.565-19.102-42.667-42.667-42.667v0c-23.565 0-42.667 19.102-42.667 42.667v0zM213.333 298.667c0 23.565 19.103 42.667 42.667 42.667v0c23.564 0 42.667-19.102 42.667-42.667v0c0-23.565-19.103-42.667-42.667-42.667v0c-23.564 0-42.667 19.102-42.667 42.667v0zM725.333 298.667c0 23.565 19.102 42.667 42.667 42.667v0c23.565 0 42.667-19.102 42.667-42.667v0c0-23.565-19.102-42.667-42.667-42.667v0c-23.565 0-42.667 19.102-42.667 42.667v0zM341.333 554.667c0 23.564 19.103 42.667 42.667 42.667v0c23.564 0 42.667-19.103 42.667-42.667v0c0-23.564-19.103-42.667-42.667-42.667v0c-23.564 0-42.667 19.103-42.667 42.667v0zM469.333 554.667c0 23.564 19.102 42.667 42.667 42.667v0c23.565 0 42.667-19.103 42.667-42.667v0c0-23.564-19.102-42.667-42.667-42.667v0c-23.565 0-42.667 19.103-42.667 42.667v0zM597.333 554.667c0 23.564 19.102 42.667 42.667 42.667v0c23.565 0 42.667-19.103 42.667-42.667v0c0-23.564-19.102-42.667-42.667-42.667v0c-23.565 0-42.667 19.103-42.667 42.667v0zM725.333 554.667c0 23.564 19.102 42.667 42.667 42.667v0c23.565 0 42.667-19.103 42.667-42.667v0c0-23.564-19.102-42.667-42.667-42.667v0c-23.565 0-42.667 19.103-42.667 42.667v0z" />
<glyph unicode="&#xe90d;" glyph-name="layers" d="M555.725 717.361c-28.254 10.275-59.226 10.275-87.484 0l-300.741-109.36 300.741-109.36c28.258-10.274 59.23-10.274 87.484 0l300.74 109.36-300.74 109.36zM439.078 797.557c47.095 17.126 98.714 17.126 145.809 0l300.74-109.36c74.897-27.235 74.897-133.157 0-160.391l-300.74-109.361c-47.095-17.126-98.714-17.126-145.809 0l-300.741 109.361c-74.895 27.235-74.895 133.157 0 160.391l300.74 109.36zM87.811 409.814c7.894 22.204 32.292 33.801 54.495 25.907l341.121-121.289c18.487-6.571 38.682-6.571 57.173 0l341.12 121.289c22.199 7.893 46.601-3.703 54.494-25.907s-3.703-46.601-25.907-54.494l-341.12-121.289c-36.983-13.15-77.367-13.15-114.351 0l-341.117 121.289c-22.202 7.893-33.801 32.29-25.907 54.494zM87.811 228.48c7.894 22.204 32.292 33.801 54.495 25.907l341.121-121.289c18.487-6.571 38.682-6.571 57.173 0l341.12 121.289c22.199 7.893 46.601-3.703 54.494-25.907s-3.703-46.601-25.907-54.494l-341.12-121.289c-36.983-13.15-77.367-13.15-114.351 0l-341.117 121.289c-22.202 7.893-33.801 32.29-25.907 54.494z" />
<glyph unicode="&#xe90e;" glyph-name="left-align" d="M128 682.667c0 23.564 19.103 42.667 42.667 42.667h682.667c23.565 0 42.667-19.103 42.667-42.667s-19.102-42.667-42.667-42.667h-682.667c-23.564 0-42.667 19.103-42.667 42.667zM128 512c0 23.564 19.103 42.667 42.667 42.667h426.667c23.565 0 42.667-19.103 42.667-42.667s-19.102-42.667-42.667-42.667h-426.667c-23.564 0-42.667 19.102-42.667 42.667zM128 341.334c0 23.565 19.103 42.667 42.667 42.667h682.667c23.565 0 42.667-19.102 42.667-42.667s-19.102-42.667-42.667-42.667h-682.667c-23.564 0-42.667 19.102-42.667 42.667zM128 170.667c0 23.565 19.103 42.667 42.667 42.667h426.667c23.565 0 42.667-19.102 42.667-42.667s-19.102-42.667-42.667-42.667h-426.667c-23.564 0-42.667 19.102-42.667 42.667z" />
<glyph unicode="&#xe90f;" glyph-name="light-10" d="M298.667 640c0 23.564 19.103 42.667 42.667 42.667h512c23.565 0 42.667-19.103 42.667-42.667s-19.102-42.667-42.667-42.667h-512c-23.564 0-42.667 19.103-42.667 42.667zM298.667 426.667c0 23.565 19.103 42.667 42.667 42.667h512c23.565 0 42.667-19.102 42.667-42.667s-19.102-42.667-42.667-42.667h-512c-23.564 0-42.667 19.102-42.667 42.667zM298.667 213.334c0 23.565 19.103 42.667 42.667 42.667h512c23.565 0 42.667-19.102 42.667-42.667s-19.102-42.667-42.667-42.667h-512c-23.564 0-42.667 19.102-42.667 42.667zM213.333 640c0-23.564-19.103-42.667-42.667-42.667s-42.667 19.103-42.667 42.667c0 23.564 19.103 42.667 42.667 42.667s42.667-19.103 42.667-42.667zM213.333 426.667c0-23.564-19.103-42.667-42.667-42.667s-42.667 19.103-42.667 42.667c0 23.564 19.103 42.667 42.667 42.667s42.667-19.103 42.667-42.667zM213.333 213.334c0-23.564-19.103-42.667-42.667-42.667s-42.667 19.103-42.667 42.667c0 23.564 19.103 42.667 42.667 42.667s42.667-19.103 42.667-42.667z" />
<glyph unicode="&#xe910;" glyph-name="map-pin" d="M713.033 349.628c35.349 44.096 56.435 99.913 56.435 160.887 0 142.205-115.281 257.485-257.485 257.485s-257.483-115.279-257.483-257.485c0-60.966 21.084-116.779 56.428-160.875v0l0.254-0.316c7.483-9.323 14.411-19.14 21.608-28.681 12.501-16.576 30.129-39.851 50.61-66.615 38.167-49.882 85.843-111.373 128.612-164.164 42.906 52.902 90.692 114.492 128.934 164.437 20.518 26.799 38.174 50.095 50.692 66.684 7.159 9.489 13.956 19.371 21.393 28.642zM779.738 296.154c0 0-0.073-0.094-0.124-0.162-2.189-2.923-22.251-29.73-51.324-67.913-43.132-56.64-106.095-138.313-159.923-204.156-29.444-36.015-83.311-36.002-112.738 0.030-92.004 112.644-210.995 271.957-210.995 271.957l-0.278 0.346c-47.048 58.688-75.19 133.188-75.19 214.259 0 189.333 153.485 342.818 342.816 342.818 189.333 0 342.818-153.485 342.818-342.818 0-50.441-10.893-98.338-30.46-141.47-11.836-26.091-26.842-50.436-44.531-72.542l-0.124-0.154-0.073-0.094h0.196l-0.073-0.102zM512 469.334c23.565 0 42.667 19.102 42.667 42.667s-19.102 42.667-42.667 42.667c-23.565 0-42.667-19.102-42.667-42.667s19.102-42.667 42.667-42.667zM640 512c0-70.694-57.306-128-128-128s-128 57.306-128 128c0 70.692 57.306 128 128 128s128-57.308 128-128z" />
<glyph unicode="&#xe911;" glyph-name="lock" d="M554.667 267.418c25.506 14.754 42.667 42.33 42.667 73.916 0 47.13-38.204 85.333-85.333 85.333s-85.333-38.204-85.333-85.333c0-31.586 17.161-59.162 42.667-73.916v-54.084c0-23.565 19.102-42.667 42.667-42.667s42.667 19.102 42.667 42.667v54.084zM298.667 597.334c-70.692 0-128-57.308-128-128v-341.333c0-70.694 57.308-128 128-128h426.667c70.694 0 128 57.306 128 128v341.333c0 70.692-57.306 128-128 128v42.667c0 117.821-95.514 213.333-213.333 213.333s-213.333-95.513-213.333-213.333v-42.667zM384 640c0 70.692 57.306 128 128 128s128-57.308 128-128v-42.667h-256v42.667zM256 469.334c0 23.565 19.103 42.667 42.667 42.667h426.667c23.565 0 42.667-19.102 42.667-42.667v-341.333c0-23.565-19.102-42.667-42.667-42.667h-426.667c-23.564 0-42.667 19.102-42.667 42.667v341.333z" />
<glyph unicode="&#xe912;" glyph-name="email" d="M213.333 682.667c-16.479 0-30.776-9.342-37.884-23.020l312.884-208.588c14.332-9.557 33.003-9.557 47.334 0l312.883 208.587c-7.108 13.678-21.406 23.020-37.884 23.020h-597.333zM170.667 560.278v-346.944c0-23.565 19.103-42.667 42.667-42.667h597.333c23.565 0 42.667 19.102 42.667 42.667v346.943l-270.332-180.219c-42.995-28.663-99.008-28.663-142.003 0l-270.332 180.22zM85.333 640c0 70.692 57.308 128 128 128h597.333c70.694 0 128-57.308 128-128v-426.667c0-70.694-57.306-128-128-128h-597.333c-70.692 0-128 57.306-128 128v426.667z" />
<glyph unicode="&#xe913;" glyph-name="paragraph" d="M384 853.334c-141.385 0-256-114.615-256-256s114.615-256 256-256h85.333v-298.667c0-23.565 19.102-42.667 42.667-42.667s42.667 19.102 42.667 42.667v725.333h128v-725.333c0-23.565 19.102-42.667 42.667-42.667s42.667 19.102 42.667 42.667v725.333h42.667c23.565 0 42.667 19.103 42.667 42.667s-19.102 42.667-42.667 42.667h-426.667zM384 768h85.333v-341.333h-85.333c-94.257 0-170.667 76.412-170.667 170.667 0 94.257 76.41 170.667 170.667 170.667z" />
<glyph unicode="&#xe914;" glyph-name="user" d="M512 512c-70.694 0-128 57.308-128 128s57.306 128 128 128c70.694 0 128-57.308 128-128s-57.306-128-128-128zM512 426.667c117.82 0 213.333 95.513 213.333 213.333s-95.514 213.333-213.333 213.333c-117.821 0-213.333-95.513-213.333-213.333s95.513-213.333 213.333-213.333zM384 256c-94.257 0-170.667-76.412-170.667-170.667v-42.667c0-23.565-19.103-42.667-42.667-42.667s-42.667 19.102-42.667 42.667v42.667c0 141.385 114.615 256 256 256h256c141.385 0 256-114.615 256-256v-42.667c0-23.565-19.102-42.667-42.667-42.667s-42.667 19.102-42.667 42.667v42.667c0 94.255-76.412 170.667-170.667 170.667h-256z" />
<glyph unicode="&#xe915;" glyph-name="phone-outgoing" d="M355.194 640.068c9.459-12.899 10.909-30.006 3.756-44.313l-17.482-34.963c-14.869-29.738-20.093-70.505-0.24-109.093 13.272-25.796 38.496-65.562 83.746-110.81 45.252-45.252 85.013-70.477 110.813-83.746 38.588-19.853 79.351-14.63 109.090 0.239l34.965 17.481c14.306 7.155 31.411 5.705 44.309-3.755l87.718-64.324c5.965-4.378 7.484-12.642 3.469-18.854-54.455-84.156-137.638-107.29-198.959-73.527-67.063 36.928-149.308 93.875-236.661 181.231s-144.304 169.6-181.229 236.66c-33.763 61.321-10.63 144.503 73.527 198.958 6.21 4.018 14.477 2.498 18.851-3.467l64.326-87.717zM225.659 802.895c-108.395-70.138-164.193-198.662-101.921-311.759 40.641-73.813 102.373-162.577 195.641-255.842 93.268-93.269 182.031-154.999 255.84-195.639 113.101-62.272 241.621-6.477 311.761 101.918 28.57 44.156 17.762 102.925-24.649 134.025l-87.714 64.324c-38.699 28.378-90.018 32.73-132.941 11.268l-34.961-17.485c-10.121-5.060-21.828-5.858-31.893-0.683-18.33 9.434-50.82 29.517-89.51 68.207s-58.773 71.177-68.204 89.51c-5.177 10.061-4.376 21.769 0.684 31.89l17.481 34.963c21.461 42.921 17.114 94.241-11.266 132.938l-64.326 87.717c-31.099 42.408-89.869 53.216-134.022 24.647zM682.667 789.334c-23.565 0-42.667-19.103-42.667-42.667s19.102-42.667 42.667-42.667h46.327l-119.164-119.163c-16.661-16.663-16.661-43.677 0-60.34 16.661-16.661 43.678-16.661 60.339 0l119.164 119.164v-46.327c0-23.564 19.102-42.667 42.667-42.667s42.667 19.103 42.667 42.667v106.667c0 47.128-38.204 85.333-85.333 85.333h-106.667z" />
<glyph unicode="&#xe916;" glyph-name="play-circle" d="M512 85.334c-188.513 0-341.333 152.819-341.333 341.333s152.82 341.333 341.333 341.333c188.514 0 341.333-152.82 341.333-341.333s-152.819-341.333-341.333-341.333zM512-0c235.639 0 426.667 191.027 426.667 426.667 0 235.642-191.027 426.667-426.667 426.667-235.642 0-426.667-191.025-426.667-426.667 0-235.639 191.025-426.667 426.667-426.667zM426.667 318.469v216.399l187.405-108.196-187.405-108.203zM656.738 352.768c56.887 32.845 56.887 114.957 0 147.802l-187.405 108.199c-56.889 32.845-128-8.212-128-73.901v-216.399c0-65.69 71.111-106.743 128-73.899l187.405 108.198z" />
<glyph unicode="&#xe917;" glyph-name="puzzle" d="M426.667 725.334c0 70.692 57.306 128 128 128s128-57.308 128-128h128c47.13 0 85.333-38.205 85.333-85.333v-182.084c0-15.249-8.141-29.338-21.35-36.958s-29.478-7.607-42.679 0.026c-6.234 3.605-13.461 5.683-21.303 5.683-23.565 0-42.667-19.102-42.667-42.667s19.102-42.667 42.667-42.667c7.842 0 15.070 2.078 21.303 5.683 13.201 7.633 29.47 7.646 42.679 0.026s21.35-21.709 21.35-36.958v-182.084c0-47.13-38.204-85.333-85.333-85.333h-182.084c-15.249 0-29.338 8.141-36.958 21.35s-7.607 29.478 0.026 42.679c3.605 6.234 5.683 13.461 5.683 21.303 0 23.565-19.102 42.667-42.667 42.667s-42.667-19.102-42.667-42.667c0-7.842 2.078-15.070 5.683-21.303 7.633-13.201 7.646-29.47 0.026-42.679s-21.709-21.35-36.958-21.35h-182.084c-47.128 0-85.333 38.204-85.333 85.333v128c-70.692 0-128 57.306-128 128s57.308 128 128 128v128c0 47.128 38.205 85.333 85.333 85.333h128zM554.667 768c-23.565 0-42.667-19.103-42.667-42.667 0-7.842 2.078-15.070 5.683-21.302 7.633-13.201 7.646-29.472 0.026-42.682s-21.709-21.349-36.958-21.349h-182.084v-182.084c0-15.249-8.139-29.338-21.349-36.958s-29.482-7.607-42.682 0.026c-6.232 3.605-13.46 5.683-21.302 5.683-23.564 0-42.667-19.102-42.667-42.667s19.103-42.667 42.667-42.667c7.842 0 15.070 2.078 21.302 5.683 13.201 7.633 29.472 7.646 42.682 0.026s21.349-21.709 21.349-36.958v-182.084h128c0 70.694 57.306 128 128 128s128-57.306 128-128h128v128c-70.694 0-128 57.306-128 128s57.306 128 128 128v128h-182.084c-15.249 0-29.338 8.139-36.958 21.349s-7.607 29.482 0.026 42.682c3.605 6.232 5.683 13.46 5.683 21.302 0 23.564-19.102 42.667-42.667 42.667z" />
<glyph unicode="&#xe918;" glyph-name="redo" d="M169.223 309.641c46.284 172.736 223.834 275.243 396.567 228.959 96.981-25.985 170.534-93.044 208.683-178.049l-62.054 16.823c-22.741 6.165-46.178-7.275-52.343-30.016s7.275-46.178 30.016-52.343l135.27-36.672c1.51-0.499 3.051-0.922 4.621-1.25l17.31-4.693c10.94-2.965 22.613-1.455 32.439 4.198 9.83 5.653 17.003 14.989 19.934 25.937l42.155 157.325c6.101 22.763-7.407 46.157-30.17 52.254-22.758 6.101-46.157-7.407-52.254-30.17l-13.931-51.981c-49.796 100.322-139.938 179.538-257.587 211.063-218.257 58.482-442.599-71.042-501.081-289.3-6.099-22.758 7.409-46.157 30.17-52.254s46.157 7.407 52.256 30.17z" />
<glyph unicode="&#xe919;" glyph-name="arrow-left" d="M810.701 469.321h-506.241l155.008 186.027c15.104 18.090 12.63 45.013-5.461 60.074-18.134 15.104-45.014 12.63-60.075-5.462l-213.333-256c-1.664-2.005-2.518-4.352-3.755-6.57-1.024-1.792-2.261-3.328-3.029-5.29-1.92-4.907-3.072-10.070-3.072-15.275 0-0.042-0.043-0.128-0.043-0.168 0-0.046 0.043-0.133 0.043-0.174 0-5.207 1.152-10.368 3.072-15.273 0.768-1.961 2.005-3.497 3.029-5.289 1.238-2.222 2.091-4.567 3.755-6.574l213.333-256c8.448-10.112 20.566-15.36 32.768-15.36 9.643 0 19.328 3.241 27.307 9.897 18.090 15.063 20.565 41.984 5.461 60.078l-155.008 186.025h506.241c23.552 0 42.665 19.118 42.665 42.67 0 23.549-19.113 42.664-42.665 42.664z" />
<glyph unicode="&#xe91a;" glyph-name="repeat" d="M691.503 819.503c-16.661 16.663-43.678 16.663-60.339 0s-16.661-43.677 0-60.34l33.664-33.666h-238.161c-164.949 0-298.667-133.718-298.667-298.669v-42.667c0-23.561 19.103-42.667 42.667-42.667s42.667 19.106 42.667 42.667v42.667c0 117.823 95.513 213.335 213.333 213.335h238.362l-33.865-33.868c-16.661-16.663-16.661-43.678 0-60.34s43.678-16.662 60.339 0.001l91.516 91.518c24.994 24.994 24.994 65.516 0 90.509l-91.516 91.518zM597.265 128c164.949 0 298.667 133.717 298.667 298.667v42.667c0 23.565-19.102 42.667-42.667 42.667s-42.667-19.102-42.667-42.667v-42.667c0-117.82-95.514-213.333-213.333-213.333h-238.366l33.87 33.869c16.662 16.666 16.662 43.678-0.001 60.339-16.662 16.666-43.677 16.666-60.34 0l-91.517-91.516c-24.993-24.994-24.993-65.519 0-90.509l91.517-91.52c16.662-16.661 43.677-16.661 60.34 0s16.663 43.678 0 60.339l-33.663 33.664h238.16z" />
<glyph unicode="&#xe91b;" glyph-name="right-align" d="M128 682.667c0 23.564 19.103 42.667 42.667 42.667h682.667c23.565 0 42.667-19.103 42.667-42.667s-19.102-42.667-42.667-42.667h-682.667c-23.564 0-42.667 19.103-42.667 42.667zM384 512c0 23.564 19.103 42.667 42.667 42.667h426.667c23.565 0 42.667-19.103 42.667-42.667s-19.102-42.667-42.667-42.667h-426.667c-23.564 0-42.667 19.102-42.667 42.667zM128 341.334c0 23.565 19.103 42.667 42.667 42.667h682.667c23.565 0 42.667-19.102 42.667-42.667s-19.102-42.667-42.667-42.667h-682.667c-23.564 0-42.667 19.102-42.667 42.667zM384 170.667c0 23.565 19.103 42.667 42.667 42.667h426.667c23.565 0 42.667-19.102 42.667-42.667s-19.102-42.667-42.667-42.667h-426.667c-23.564 0-42.667 19.102-42.667 42.667z" />
<glyph unicode="&#xe91c;" glyph-name="rocket-filled" d="M462.238 85.334h99.499c20.211 0 37.82-14.421 36.126-34.56-2.667-31.718-17.626-76.053-77.521-91.533-5.453-1.408-11.255-1.408-16.708 0-59.891 15.479-74.85 59.814-77.52 91.533-1.694 20.139 15.918 34.56 36.125 34.56zM298.667 597.335c31.994 95.971 135.94 203.936 185.958 251.958 15.415 14.804 39.334 14.804 54.754 0 50.014-48.021 153.963-155.986 185.954-251.958 15.467-46.395 14.844-110.107 6.737-175.631 0.196 1.587 0.388 3.174 0.576 4.757 67.29-3.789 120.687-59.554 120.687-127.795v-176.273c0-34.078-37.978-54.404-66.334-35.503l-123.477 82.321c-22.754-25.856-56.495-41.212-92.894-41.212h-117.623c-37.236 0-71.702 16.073-94.432 43.042 0.559-0.666 1.125-1.323 1.697-1.971l-123.27-82.18c-28.354-18.901-66.334 1.425-66.334 35.503v176.273c0 68.105 53.187 123.789 120.291 127.774-7.442 63.569-7.518 125.217 7.71 170.895zM644.378 570.351c9.907-29.721 10.812-82.205 1.442-150.101-8.926-64.636-25.344-131.409-39.782-182.541-3.669-12.988-16.55-24.375-35.409-24.375h-117.623c-18.812 0-31.588 11.315-35.245 24.145-14.498 50.863-30.965 117.346-39.876 181.888-9.344 67.678-8.427 120.492 1.737 150.982 11.142 33.421 37.487 74.914 71.725 117.419 20.39 25.317 41.754 48.774 60.655 68.34 18.906-19.566 40.265-43.023 60.659-68.339 34.236-42.505 60.578-83.998 71.718-117.417zM304.428 342.375c0.069-0.346 0.138-0.691 0.207-1.041h-5.968c-23.564 0-42.667-19.102-42.667-42.667v-96.55l70.147 46.763c-7.538 28.591-15.168 60.45-21.72 93.495zM697.515 248.888l0.047 0.188 70.438-46.959v96.55c0 23.565-19.102 42.667-42.667 42.667h-6.409c-6.49-32.653-14.003-64.145-21.41-92.446zM597.333 512c0-47.128-38.205-85.333-85.333-85.333s-85.333 38.205-85.333 85.333c0 47.128 38.205 85.333 85.333 85.333s85.333-38.205 85.333-85.333z" />
<glyph unicode="&#xe91d;" glyph-name="setting" d="M512 341.334c47.13 0 85.333 38.204 85.333 85.333s-38.204 85.333-85.333 85.333c-47.13 0-85.333-38.204-85.333-85.333s38.204-85.333 85.333-85.333zM682.667 426.667c0-94.255-76.412-170.667-170.667-170.667-94.257 0-170.667 76.412-170.667 170.667 0 94.257 76.41 170.667 170.667 170.667 94.255 0 170.667-76.41 170.667-170.667zM485.517 810.667l-16.538-49.607c-15.996-47.996-50.875-81.391-86.447-101.197-2.53-1.409-5.035-2.858-7.514-4.346-34.986-21.003-81.413-34.55-131.037-24.396l-51.276 10.493 17.108 83.601 51.276-10.493c24.119-4.936 48.902 1.286 70.009 13.957 3.273 1.965 6.581 3.879 9.923 5.739 21.484 11.962 39.232 30.3 47.008 53.627l16.535 49.607c11.615 34.845 44.223 58.348 80.954 58.348h52.992c36.727 0 69.338-23.503 80.951-58.348l16.538-49.607c7.774-23.327 25.523-41.665 47.006-53.627 3.341-1.86 6.652-3.774 9.924-5.739 21.107-12.671 45.888-18.892 70.007-13.957l51.273 10.492c35.985 7.364 72.644-9.125 91.008-40.934l26.496-45.891c18.368-31.809 14.315-71.801-10.052-99.283l-34.773-39.215c-16.294-18.372-23.339-42.88-22.946-67.439 0.060-3.857 0.060-7.714 0-11.571-0.393-24.555 6.652-49.062 22.946-67.439l34.773-39.211c24.367-27.482 28.42-67.477 10.052-99.285l-26.496-45.892c-18.364-31.808-55.023-48.294-91.008-40.93l-51.268 10.492c-24.119 4.932-48.905-1.289-70.012-13.961-3.273-1.963-6.583-3.878-9.924-5.739-21.483-11.964-39.232-30.302-47.006-53.628l-16.538-49.609c-11.614-34.842-44.224-58.347-80.951-58.347h-52.992c-36.732 0-69.339 23.505-80.954 58.347l-16.535 49.609c-7.776 23.326-25.524 41.664-47.008 53.628-3.342 1.86-6.651 3.776-9.926 5.739-21.107 12.672-45.891 18.893-70.009 13.961l-51.273-10.492c-35.984-7.364-72.643 9.122-91.008 40.93l-26.495 45.892c-18.365 31.808-14.315 71.804 10.054 99.285l63.846-56.619 26.495-45.892 51.273 10.496c49.625 10.155 96.052-3.396 131.039-24.397 2.48-1.489 4.986-2.94 7.517-4.348 35.572-19.81 70.451-53.201 86.447-101.197l16.538-49.609h52.992l16.533 49.609c16 47.996 50.876 81.387 86.447 101.197 2.534 1.408 5.039 2.859 7.518 4.348 34.987 21.001 81.417 34.551 131.038 24.393l51.273-10.492 26.496 45.892-34.773 39.215c-33.485 37.76-45.073 84.587-44.425 125.406 0.047 2.957 0.047 5.914 0 8.866-0.649 40.819 10.94 87.65 44.425 125.41l34.773 39.213-26.496 45.891-51.273-10.493c-49.626-10.155-96.051 3.393-131.038 24.396-2.479 1.488-4.988 2.937-7.514 4.346-35.575 19.807-70.451 53.201-86.451 101.197l-16.533 49.607h-52.992zM102.363 314.232l63.846-56.619 34.775 39.215c33.483 37.76 45.071 84.591 44.424 125.406-0.047 2.957-0.047 5.914 0 8.866 0.647 40.819-10.941 87.648-44.424 125.407l-34.775 39.216 26.495 45.891 17.108 83.601c-35.984 7.363-72.643-9.125-91.008-40.934l-26.495-45.891c-18.365-31.809-14.315-71.801 10.054-99.283l34.774-39.215c16.295-18.377 23.337-42.884 22.948-67.439-0.061-3.857-0.061-7.714 0-11.567 0.389-24.559-6.653-49.062-22.948-67.439l-34.774-39.215z" />
<glyph unicode="&#xe91e;" glyph-name="ink-pen" d="M806.4 900.667c-8.8-3.2-21.2-9.6-28-14.4-14-10-70-68.4-138-143.6-128-140.8-276-287.6-435.2-431.2l-76-68-16.4-42c-26.4-67.6-81.2-234.8-80-244 0.8-5.2 4.4-9.2 9.6-10 8.4-1.2 126.4 38.4 223.6 75.2 64.8 24.8 55.2 16.8 160 134 127.6 142.4 259.2 272 436 428.4 113.2 100.8 130 122.8 130 171.2-0.4 27.2-12.4 46-62.4 94.8-36.4 35.6-51.2 47.6-63.6 51.2-21.2 5.6-40.4 5.2-59.6-1.6zM853.2 837.067c18.4-7.6 69.2-61.6 72.4-77.2 1.6-6.8 0.8-20-1.6-28.8-4.8-18.8-22.4-36-168-168.8-156-142-201.2-186.8-408.4-403.6l-74.8-78-31.2-11.6c-17.6-6.4-33.6-12.4-36.4-13.2-2.4-1.2-5.6 2.4-7.2 7.2-4.4 12.8-32.4 42-46.4 47.6-14.4 6-14 9.2 4.8 54 11.2 26.8 15.2 31.6 100.4 112 140.4 132.8 282.4 275.6 381.6 384 132.4 144.8 156.8 169.2 175.6 176 20.4 7.2 23.6 7.2 39.2 0.4z" />
<glyph unicode="&#xe91f;" glyph-name="light-26" d="M213.333 682.667h597.333c23.565 0 42.667-19.103 42.667-42.667v-65.516c-50.837-29.388-85.333-84.518-85.333-147.818s34.496-118.43 85.333-147.819v-65.515c0-23.565-19.102-42.667-42.667-42.667h-597.333c-23.564 0-42.667 19.102-42.667 42.667v65.515c50.839 29.389 85.333 84.518 85.333 147.819s-34.495 118.429-85.333 147.818v65.516c0 23.564 19.103 42.667 42.667 42.667zM213.333 768c-70.692 0-128-57.308-128-128v-85.333c0-23.564 20.246-41.783 40.916-53.099 26.469-14.49 44.417-42.598 44.417-74.901s-17.949-60.412-44.417-74.901c-20.67-11.315-40.916-29.534-40.916-53.099v-85.333c0-70.694 57.308-128 128-128h597.333c70.694 0 128 57.306 128 128v85.333c0 23.565-20.245 41.783-40.917 53.099-26.466 14.49-44.416 42.598-44.416 74.901s17.95 60.412 44.416 74.901c20.672 11.316 40.917 29.535 40.917 53.099v85.333c0 70.692-57.306 128-128 128h-597.333zM511.996 461.278c9.63-9.668 20.749-17.749 32.922-23.919-6.221-12.143-10.47-25.216-12.574-38.699-13.474 2.163-27.217 2.163-40.691 0-2.103 13.483-6.353 26.556-12.578 38.699 12.177 6.17 23.296 14.251 32.922 23.919zM552.299 566.722c-13.282 38.211-67.319 38.211-80.602 0l-10.142-29.17c-5.858-16.856-21.589-28.287-39.431-28.649l-30.876-0.627c-40.445-0.828-57.143-52.22-24.908-76.659l24.609-18.658c14.221-10.782 20.23-29.274 15.062-46.353l-8.943-29.559c-11.714-38.72 32.004-70.485 65.207-47.377l25.353 17.638c14.647 10.193 34.091 10.193 48.738 0l25.348-17.638c33.207-23.108 76.924 8.657 65.212 47.377l-8.943 29.559c-5.167 17.079 0.841 35.571 15.061 46.353l24.61 18.658c32.235 24.439 15.535 75.831-24.909 76.659l-30.878 0.627c-17.839 0.363-33.57 11.793-39.428 28.649l-10.142 29.17z" />
<glyph unicode="&#xe920;" glyph-name="trash" d="M426.667 512c23.565 0 42.667-19.102 42.667-42.667v-213.333c0-23.565-19.102-42.667-42.667-42.667s-42.667 19.102-42.667 42.667v213.333c0 23.565 19.103 42.667 42.667 42.667zM597.333 512c23.565 0 42.667-19.102 42.667-42.667v-213.333c0-23.565-19.102-42.667-42.667-42.667s-42.667 19.102-42.667 42.667v213.333c0 23.565 19.102 42.667 42.667 42.667zM426.667 853.334h170.667c70.694 0 128-57.308 128-128h170.667c23.565 0 42.667-19.103 42.667-42.667s-19.102-42.667-42.667-42.667h-42.667v-512c0-70.694-57.306-128-128-128h-426.667c-70.692 0-128 57.306-128 128v512h-42.667c-23.564 0-42.667 19.103-42.667 42.667s19.103 42.667 42.667 42.667h170.667c0 70.692 57.308 128 128 128zM640 725.334c0 23.564-19.102 42.667-42.667 42.667h-170.667c-23.564 0-42.667-19.103-42.667-42.667h256zM298.667 640h-42.667v-512c0-23.565 19.103-42.667 42.667-42.667h426.667c23.565 0 42.667 19.102 42.667 42.667v512h-469.333z" />
<glyph unicode="&#xe921;" glyph-name="underline-alt" d="M213.333 42.667c0 23.565 19.103 42.667 42.667 42.667h512c23.565 0 42.667-19.102 42.667-42.667s-19.102-42.667-42.667-42.667h-512c-23.564 0-42.667 19.102-42.667 42.667zM256 853.334c23.564 0 42.667-19.103 42.667-42.667v-341.333c0-117.82 95.513-213.333 213.333-213.333s213.333 95.514 213.333 213.333v341.333c0 23.564 19.102 42.667 42.667 42.667s42.667-19.103 42.667-42.667v-341.333c0-164.949-133.717-298.667-298.667-298.667s-298.667 133.717-298.667 298.667v341.333c0 23.564 19.103 42.667 42.667 42.667z" />
<glyph unicode="&#xe922;" glyph-name="undo" d="M859.396 309.641c-46.285 172.736-223.834 275.243-396.57 228.959-96.977-25.985-170.531-93.044-208.682-178.049l62.056 16.823c22.743 6.165 46.178-7.275 52.344-30.016s-7.273-46.178-30.017-52.343l-135.27-36.672c-1.51-0.499-3.052-0.922-4.62-1.25l-17.31-4.693c-10.943-2.965-22.616-1.455-32.443 4.198s-16.999 14.989-19.933 25.937l-42.155 157.325c-6.099 22.763 7.409 46.157 30.17 52.254 22.761 6.101 46.157-7.407 52.256-30.17l13.928-51.981c49.798 100.322 139.938 179.538 257.591 211.063 218.257 58.482 442.598-71.042 501.077-289.3 6.101-22.758-7.407-46.157-30.17-52.254-22.758-6.097-46.157 7.407-52.254 30.17z" />
<glyph unicode="&#xe923;" glyph-name="upload-alt" d="M734.174 542.272c16.661-16.663 16.661-43.678 0-60.339s-43.678-16.661-60.339 0l-119.083 119.082v-302.348c0-23.565-19.102-42.667-42.667-42.667s-42.667 19.102-42.667 42.667v302.347l-119.165-119.166c-16.662-16.661-43.677-16.661-60.34 0-16.663 16.666-16.663 43.679 0 60.341l192.002 192.002c8 8.002 18.854 12.497 30.17 12.497s22.17-4.495 30.17-12.497l191.919-191.919zM170.667 341.334c23.564 0 42.667-19.102 42.667-42.667v-85.333c0-23.565 19.103-42.667 42.667-42.667h512c23.565 0 42.667 19.102 42.667 42.667v85.333c0 23.565 19.102 42.667 42.667 42.667s42.667-19.102 42.667-42.667v-85.333c0-70.694-57.306-128-128-128h-512c-70.692 0-128 57.306-128 128v85.333c0 23.565 19.103 42.667 42.667 42.667z" />
<glyph unicode="&#xe924;" glyph-name="web-development" d="M298.667 682.667c0-23.564-19.103-42.667-42.667-42.667s-42.667 19.103-42.667 42.667c0 23.564 19.103 42.667 42.667 42.667s42.667-19.103 42.667-42.667zM426.667 682.667c0-23.564-19.103-42.667-42.667-42.667s-42.667 19.103-42.667 42.667c0 23.564 19.103 42.667 42.667 42.667s42.667-19.103 42.667-42.667zM554.667 682.667c0-23.564-19.102-42.667-42.667-42.667s-42.667 19.103-42.667 42.667c0 23.564 19.102 42.667 42.667 42.667s42.667-19.103 42.667-42.667zM631.164 195.358c-16.661 16.661-16.661 43.674 0 60.339l42.974 42.974-42.974 42.97c-16.661 16.666-16.661 43.678 0 60.339 16.661 16.666 43.678 16.666 60.339 0l73.143-73.139c16.661-16.666 16.661-43.678 0-60.343l-73.143-73.139c-16.661-16.666-43.678-16.666-60.339 0zM392.837 195.358c16.662 16.661 16.662 43.674 0 60.339l-42.973 42.974 42.973 42.97c16.662 16.666 16.662 43.678 0 60.339-16.663 16.666-43.677 16.666-60.34 0l-73.143-73.139c-16.663-16.666-16.663-43.678 0-60.343l73.143-73.139c16.663-16.666 43.677-16.666 60.34 0zM560.294 467.691c-22.656 6.473-46.272-6.647-52.749-29.303l-73.139-256c-6.477-22.656 6.643-46.272 29.303-52.745 22.656-6.477 46.272 6.643 52.745 29.303l73.143 256c6.473 22.656-6.647 46.272-29.303 52.745zM85.333 725.334c0 70.692 57.308 128 128 128h597.333c70.694 0 128-57.308 128-128v-597.333c0-70.694-57.306-128-128-128h-597.333c-70.692 0-128 57.306-128 128v597.333zM213.333 768c-23.564 0-42.667-19.103-42.667-42.667v-128h682.667v128c0 23.564-19.102 42.667-42.667 42.667h-597.333zM170.667 512v-384c0-23.565 19.103-42.667 42.667-42.667h597.333c23.565 0 42.667 19.102 42.667 42.667v384h-682.667z" />
<glyph unicode="&#xe925;" glyph-name="bug" d="M896 397.403c0-8.49-3.040-15.837-9.12-22.042-6.080-6.202-13.28-9.306-21.6-9.306h-107.52c0-55.837-10.72-103.184-32.16-142.038l99.84-102.368c6.080-6.205 9.12-13.552 9.12-22.042s-3.040-15.837-9.12-22.042c-5.76-6.205-12.96-9.306-21.6-9.306s-15.84 3.101-21.6 9.306l-95.040 96.49c-1.6-1.632-4-3.754-7.2-6.368-3.2-2.611-9.92-7.264-20.16-13.958s-20.64-12.653-31.2-17.878c-10.56-5.222-23.68-9.958-39.36-14.202-15.68-4.246-31.2-6.368-46.56-6.368v438.858h-61.44v-438.858c-16.32 0-32.56 2.205-48.72 6.611-16.16 4.41-30.080 9.795-41.76 16.163s-22.24 12.736-31.68 19.104c-9.44 6.365-16.4 11.674-20.88 15.917l-7.2 6.858-87.84-101.389c-6.4-6.858-14.080-10.285-23.040-10.285-7.68 0-14.56 2.611-20.64 7.837-6.080 5.878-9.36 13.142-9.84 21.795s2 16.246 7.44 22.778l96.96 111.181c-18.56 37.226-27.84 81.962-27.84 134.205h-107.52c-8.32 0-15.52 3.104-21.6 9.306-6.080 6.205-9.12 13.552-9.12 22.042s3.040 15.837 9.12 22.042c6.080 6.205 13.28 9.306 21.6 9.306h107.52v144l-83.040 84.735c-6.080 6.204-9.12 13.551-9.12 22.041s3.040 15.836 9.12 22.041c6.080 6.204 13.28 9.306 21.6 9.306s15.52-3.102 21.6-9.306l83.040-84.733h405.12l83.040 84.733c6.080 6.204 13.28 9.306 21.6 9.306s15.52-3.102 21.6-9.306c6.080-6.204 9.12-13.551 9.12-22.041s-3.040-15.837-9.12-22.041l-83.040-84.735v-144h107.52c8.32 0 15.52-3.101 21.6-9.306s9.12-13.552 9.12-22.042zM665.6 679.526h-307.2c0 43.428 14.96 80.408 44.88 110.939s66.16 45.796 108.72 45.796c42.56 0 78.8-15.265 108.72-45.796s44.88-67.51 44.88-110.939z" />
<glyph unicode="&#xe926;" glyph-name="underline" d="M213.333 42.667c0 23.565 19.103 42.667 42.667 42.667h512c23.565 0 42.667-19.102 42.667-42.667s-19.102-42.667-42.667-42.667h-512c-23.564 0-42.667 19.102-42.667 42.667zM256 853.334c23.564 0 42.667-19.103 42.667-42.667v-341.333c0-117.82 95.513-213.333 213.333-213.333s213.333 95.514 213.333 213.333v341.333c0 23.564 19.102 42.667 42.667 42.667s42.667-19.103 42.667-42.667v-341.333c0-164.949-133.717-298.667-298.667-298.667s-298.667 133.717-298.667 298.667v341.333c0 23.564 19.103 42.667 42.667 42.667z" />
<glyph unicode="&#xe927;" glyph-name="italic" d="M598.242 810.667h105.758c23.565 0 42.667-19.103 42.667-42.667s-19.102-42.667-42.667-42.667h-73.353l-149.333-597.333h73.353c23.565 0 42.667-19.102 42.667-42.667s-19.102-42.667-42.667-42.667h-127.057c-0.606-0.013-1.213-0.013-1.821 0h-105.789c-23.564 0-42.667 19.102-42.667 42.667s19.103 42.667 42.667 42.667h73.353l149.333 597.333h-73.353c-23.565 0-42.667 19.103-42.667 42.667s19.102 42.667 42.667 42.667h127.027c0.627 0.014 1.25 0.014 1.882 0z" />
<glyph unicode="&#xe928;" glyph-name="filter-alt" d="M436.719 472.431c20.591-16.175 32.614-40.913 32.614-67.098v-284.847l85.333 30.025v254.822c0 26.185 12.023 50.923 32.614 67.098l249.745 196.232c10.295 8.089 16.307 20.457 16.307 33.55v65.787h-682.667v-65.787c0-13.093 6.011-25.461 16.306-33.55l249.746-196.232zM889.749 601.564l-249.749-196.23v-285.039c0-18.108-11.426-34.24-28.506-40.252l-170.667-60.049c-27.753-9.762-56.828 10.829-56.828 40.247v345.092l-249.748 196.23c-30.886 24.267-48.919 61.37-48.919 100.649v65.787c0 47.128 38.205 85.333 85.333 85.333h682.667c47.13 0 85.333-38.205 85.333-85.333v-65.787c0-39.279-18.035-76.382-48.917-100.649z" />
<glyph unicode="&#xe929;" glyph-name="files" d="M298.667 682.667h-42.667c-70.692 0-128-57.308-128-128v-426.667c0-70.694 57.308-128 128-128h341.333c70.694 0 128 57.306 128 128v42.667h-85.333v-42.667c0-23.565-19.102-42.667-42.667-42.667h-341.333c-23.564 0-42.667 19.102-42.667 42.667v426.667c0 23.564 19.103 42.667 42.667 42.667h42.667v85.333zM895.582 640h0.418l-0.457 0.457c-2.539 29.988-15.59 58.257-37.035 79.7l-95.684 95.686c-21.444 21.443-49.711 34.493-79.701 37.033l-0.457 0.457v-0.419c-3.43 0.278-6.886 0.419-10.351 0.419h-245.649c-70.692 0-128-57.308-128-128v-426.667c0-70.694 57.308-128 128-128h341.333c70.694 0 128 57.306 128 128v330.981c0 3.468-0.141 6.921-0.418 10.353zM768 256h-341.333c-23.564 0-42.667 19.102-42.667 42.667v426.667c0 23.564 19.103 42.667 42.667 42.667h245.649c3.52 0 6.993-0.435 10.351-1.275v-41.392c0-47.128 38.204-85.333 85.333-85.333h41.391c0.841-3.358 1.276-6.833 1.276-10.353v-330.981c0-23.565-19.102-42.667-42.667-42.667z" />
<glyph unicode="&#xe92a;" glyph-name="file-add" d="M128 725.334v-597.333c0-70.694 57.308-128 128-128h512c70.694 0 128 57.306 128 128v480.314c0 33.948-13.487 66.505-37.491 90.51l-117.018 117.019c-24.004 24.005-56.563 37.49-90.509 37.49h-394.982c-70.692 0-128-57.308-128-128zM640 682.667v76.497c0 19.006 22.98 28.524 36.42 15.085l140.493-140.497c13.44-13.439 3.921-36.418-15.083-36.418h-76.497c-47.13 0-85.333 38.205-85.333 85.333zM512 554.667c23.565 0 42.667-19.103 42.667-42.667v-85.333h85.333c23.565 0 42.667-19.102 42.667-42.667s-19.102-42.667-42.667-42.667h-85.333v-85.333c0-23.565-19.102-42.667-42.667-42.667s-42.667 19.102-42.667 42.667v85.333h-85.333c-23.564 0-42.667 19.102-42.667 42.667s19.103 42.667 42.667 42.667h85.333v85.333c0 23.564 19.102 42.667 42.667 42.667z" />
<glyph unicode="&#xe92b;" glyph-name="fullscreen" d="M85.333 725.334c0 70.692 57.308 128 128 128h85.333c23.564 0 42.667-19.103 42.667-42.667s-19.103-42.667-42.667-42.667h-85.333c-23.564 0-42.667-19.103-42.667-42.667v-85.333c0-23.564-19.103-42.667-42.667-42.667s-42.667 19.103-42.667 42.667v85.333zM85.333 128c0-70.694 57.308-128 128-128h85.333c23.564 0 42.667 19.102 42.667 42.667s-19.103 42.667-42.667 42.667h-85.333c-23.564 0-42.667 19.102-42.667 42.667v85.333c0 23.565-19.103 42.667-42.667 42.667s-42.667-19.102-42.667-42.667v-85.333zM938.667 128c0-70.694-57.306-128-128-128h-85.333c-23.565 0-42.667 19.102-42.667 42.667s19.102 42.667 42.667 42.667h85.333c23.565 0 42.667 19.102 42.667 42.667v85.333c0 23.565 19.102 42.667 42.667 42.667s42.667-19.102 42.667-42.667v-85.333zM938.667 725.334c0 70.692-57.306 128-128 128h-85.333c-23.565 0-42.667-19.103-42.667-42.667s19.102-42.667 42.667-42.667h85.333c23.565 0 42.667-19.103 42.667-42.667v-85.333c0-23.564 19.102-42.667 42.667-42.667s42.667 19.103 42.667 42.667v85.333z" />
<glyph unicode="&#xe92c;" glyph-name="donut-chart" d="M469.333 725.334c0 23.564-19.162 42.912-42.581 40.299-60.882-6.793-119.478-28.084-170.758-62.348-63.148-42.194-112.367-102.167-141.431-172.334s-36.669-147.377-21.852-221.865c14.816-74.487 51.389-142.912 105.092-196.612 53.704-53.705 122.126-90.278 196.614-105.097 74.488-14.814 151.697-7.211 221.867 21.854 70.165 29.065 130.138 78.281 172.331 141.431 34.266 51.281 55.556 109.875 62.349 170.761 2.611 23.415-16.734 42.577-40.299 42.577h-170.33c-23.565 0-42.005-19.61-49.694-41.886-3.567-10.334-8.461-20.224-14.601-29.414-14.101-21.103-34.146-37.555-57.596-47.266-23.45-9.715-49.254-12.254-74.15-7.305-24.895 4.954-47.763 17.173-65.711 35.123s-30.171 40.815-35.123 65.711c-4.952 24.896-2.411 50.701 7.303 74.15s26.163 43.494 47.268 57.596c9.188 6.14 19.079 11.034 29.414 14.601 22.276 7.691 41.886 26.13 41.886 49.694v170.33zM896 469.334c23.565 0 42.91 19.162 40.299 42.581-3.994 35.808-13.018 70.95-26.863 104.37-19.298 46.589-47.582 88.921-83.238 124.579-35.661 35.657-77.99 63.943-124.578 83.241-33.421 13.843-68.565 22.867-104.375 26.863-23.415 2.613-42.577-16.735-42.577-40.299v-170.33c0-23.564 19.61-42.004 41.886-49.694 2.432-0.84 4.843-1.754 7.228-2.741 15.569-6.449 29.717-15.903 41.634-27.82s21.372-26.065 27.819-41.635c0.99-2.384 1.903-4.794 2.743-7.227 7.689-22.272 26.129-41.886 49.694-41.886h170.33z" />
<glyph unicode="&#xe92d;" glyph-name="dollar" d="M512 896c23.565 0 42.667-19.103 42.667-42.667v-42.667h85.333c94.255 0 170.667-76.41 170.667-170.667v-42.667c0-23.564-19.102-42.667-42.667-42.667s-42.667 19.103-42.667 42.667v42.667c0 47.128-38.204 85.333-85.333 85.333h-256c-47.128 0-85.333-38.205-85.333-85.333v-4.99c0-55.095 35.255-104.009 87.523-121.431l278.604-92.868c87.113-29.039 145.873-110.562 145.873-202.385v-4.992c0-94.255-76.412-170.667-170.667-170.667h-85.333v-42.667c0-23.565-19.102-42.667-42.667-42.667s-42.667 19.102-42.667 42.667v42.667h-85.333c-94.257 0-170.667 76.412-170.667 170.667v42.667c0 23.565 19.103 42.667 42.667 42.667s42.667-19.102 42.667-42.667v-42.667c0-47.13 38.205-85.333 85.333-85.333h256c47.13 0 85.333 38.204 85.333 85.333v4.992c0 55.095-35.255 104.009-87.522 121.429l-278.607 92.868c-87.113 29.039-145.871 110.561-145.871 202.387v4.99c0 94.257 76.41 170.667 170.667 170.667h85.333v42.667c0 23.564 19.102 42.667 42.667 42.667z" />
<glyph unicode="&#xe92e;" glyph-name="document-light" d="M298.667 469.334c0 23.565 19.103 42.667 42.667 42.667h341.333c23.565 0 42.667-19.102 42.667-42.667s-19.102-42.667-42.667-42.667h-341.333c-23.564 0-42.667 19.102-42.667 42.667zM298.667 298.667c0 23.565 19.103 42.667 42.667 42.667h170.667c23.565 0 42.667-19.102 42.667-42.667s-19.102-42.667-42.667-42.667h-170.667c-23.564 0-42.667 19.102-42.667 42.667zM896 128v512l-0.457 0.457c-2.543 29.988-15.59 58.257-37.035 79.7l-95.684 95.686c-21.444 21.443-49.711 34.493-79.701 37.033l-0.457 0.457h-426.667c-70.692 0-128-57.308-128-128v-597.333c0-70.694 57.308-128 128-128h512c70.694 0 128 57.306 128 128zM768 85.334h-512c-23.564 0-42.667 19.102-42.667 42.667v597.333c0 23.564 19.102 42.667 42.667 42.667h384v-85.333c0-47.128 38.204-85.333 85.333-85.333h85.333v-469.333c0-23.565-19.102-42.667-42.667-42.667z" />
<glyph unicode="&#xe92f;" glyph-name="document" d="M298.667 469.334c0 23.565 19.103 42.667 42.667 42.667h341.333c23.565 0 42.667-19.102 42.667-42.667s-19.102-42.667-42.667-42.667h-341.333c-23.564 0-42.667 19.102-42.667 42.667zM298.667 298.667c0 23.565 19.103 42.667 42.667 42.667h170.667c23.565 0 42.667-19.102 42.667-42.667s-19.102-42.667-42.667-42.667h-170.667c-23.564 0-42.667 19.102-42.667 42.667zM896 128v512l-0.457 0.457c-2.543 29.988-15.59 58.257-37.035 79.7l-95.684 95.686c-21.444 21.443-49.711 34.493-79.701 37.033l-0.457 0.457h-426.667c-70.692 0-128-57.308-128-128v-597.333c0-70.694 57.308-128 128-128h512c70.694 0 128 57.306 128 128zM768 85.334h-512c-23.564 0-42.667 19.102-42.667 42.667v597.333c0 23.564 19.102 42.667 42.667 42.667h384v-85.333c0-47.128 38.204-85.333 85.333-85.333h85.333v-469.333c0-23.565-19.102-42.667-42.667-42.667z" />
<glyph unicode="&#xe930;" glyph-name="document-alt" d="M298.667 469.334c0 23.565 19.103 42.667 42.667 42.667h341.333c23.565 0 42.667-19.102 42.667-42.667s-19.102-42.667-42.667-42.667h-341.333c-23.564 0-42.667 19.102-42.667 42.667zM298.667 298.667c0 23.565 19.103 42.667 42.667 42.667h170.667c23.565 0 42.667-19.102 42.667-42.667s-19.102-42.667-42.667-42.667h-170.667c-23.564 0-42.667 19.102-42.667 42.667zM896 128v512l-0.457 0.457c-2.543 29.988-15.59 58.257-37.035 79.7l-95.684 95.686c-21.444 21.443-49.711 34.493-79.701 37.033l-0.457 0.457h-426.667c-70.692 0-128-57.308-128-128v-597.333c0-70.694 57.308-128 128-128h512c70.694 0 128 57.306 128 128zM768 85.334h-512c-23.564 0-42.667 19.102-42.667 42.667v597.333c0 23.564 19.102 42.667 42.667 42.667h384v-85.333c0-47.128 38.204-85.333 85.333-85.333h85.333v-469.333c0-23.565-19.102-42.667-42.667-42.667z" />
<glyph unicode="&#xe931;" glyph-name="design" d="M543.049 697.307l-121.568 121.568c-49.987 49.987-131.032 49.987-181.019 0l-120.68-120.68c-49.987-49.987-49.987-131.032 0-181.019l121.568-121.566-93.871-93.875c-5.956-5.956-10.016-13.542-11.668-21.803l-45.255-226.274c-5.971-29.854 20.351-56.175 50.206-50.206l226.274 45.257c8.26 1.651 15.846 5.713 21.802 11.669l93.872 93.871 119.791-119.791c49.988-49.988 131.034-49.988 181.018 0l120.683 120.678c49.984 49.988 49.984 131.034 0 181.022l-119.791 119.791 108.181 108.181c49.988 49.987 49.988 131.032 0 181.019l-60.339 60.34c-49.988 49.987-131.034 49.987-181.022 0l-108.181-108.182zM180.122 637.855c-16.662-16.662-16.662-43.677 0-60.34l30.171-30.171 60.339 60.338c16.662 16.663 43.677 16.663 60.34 0s16.663-43.677 0-60.34l-60.338-60.337 31.057-31.057 181.020 181.018-121.568 121.568c-16.662 16.663-43.677 16.663-60.34 0l-120.68-120.68zM724.066 395.61l-181.018-181.022 29.282-29.282 30.17 30.17c16.661 16.661 43.678 16.661 60.339 0s16.661-43.678 0-60.339l-30.17-30.17 30.17-30.17c16.661-16.661 43.678-16.661 60.339 0l120.683 120.678c16.661 16.666 16.661 43.678 0 60.339l-119.795 119.795zM832.252 684.81l-60.339 60.34c-16.666 16.663-43.678 16.663-60.339 0l-60.343-60.34 120.683-120.68 60.339 60.34c16.661 16.663 16.661 43.677 0 60.34zM216.953 250.53l373.938 373.938 120.678-120.678-373.937-373.939-150.849-30.17 30.17 150.848z" />
<glyph unicode="&#xe932;" glyph-name="copy-filled" d="M597.333 725.334c23.565 0 42.667-19.103 42.667-42.667v-341.333c0-23.565-19.102-42.667-42.667-42.667h-341.333c-23.564 0-42.667 19.102-42.667 42.667v341.333c0 23.564 19.103 42.667 42.667 42.667h341.333zM256 810.667c-70.692 0-128-57.308-128-128v-341.333c0-70.694 57.308-128 128-128h341.333c70.694 0 128 57.306 128 128v341.333c0 70.692-57.306 128-128 128h-341.333zM298.667 512c0 70.692 57.308 128 128 128h341.333c70.694 0 128-57.308 128-128v-341.333c0-70.694-57.306-128-128-128h-341.333c-70.692 0-128 57.306-128 128v341.333z" />
<glyph unicode="&#xe933;" glyph-name="copy" d="M256 725.334h341.333c23.565 0 42.667-19.103 42.667-42.667v-42.667h85.333v42.667c0 70.692-57.306 128-128 128h-341.333c-70.692 0-128-57.308-128-128v-341.333c0-70.694 57.308-128 128-128h42.667v85.333h-42.667c-23.564 0-42.667 19.102-42.667 42.667v341.333c0 23.564 19.103 42.667 42.667 42.667zM768 554.667c23.565 0 42.667-19.103 42.667-42.667v-341.333c0-23.565-19.102-42.667-42.667-42.667h-341.333c-23.564 0-42.667 19.102-42.667 42.667v341.333c0 23.564 19.103 42.667 42.667 42.667h341.333zM426.667 640c-70.692 0-128-57.308-128-128v-341.333c0-70.694 57.308-128 128-128h341.333c70.694 0 128 57.306 128 128v341.333c0 70.692-57.306 128-128 128h-341.333z" />
<glyph unicode="&#xe934;" glyph-name="code-alt" d="M443.328 185.664c-22.215 19.994-22.215 52.412 0 72.405l187.332 168.597-187.332 168.596c-22.215 19.995-22.215 52.413 0 72.408 22.217 19.995 58.236 19.995 80.452 0l227.558-204.801c22.217-19.994 22.217-52.412 0-72.405l-227.558-204.8c-22.217-19.998-58.236-19.998-80.452 0zM324.671 185.664c22.216 19.994 22.216 52.412 0 72.405l-187.329 168.597 187.329 168.596c22.217 19.995 22.217 52.413 0 72.408s-58.236 19.995-80.453 0l-227.556-204.801c-22.216-19.994-22.216-52.412 0-72.405l227.556-204.8c22.217-19.998 58.237-19.998 80.453 0z" />
<glyph unicode="&#xe935;" glyph-name="code" d="M695.164 225.831c-16.661 16.661-16.661 43.678 0 60.339l140.497 140.497-140.497 140.497c-16.661 16.663-16.661 43.677 0 60.34s43.678 16.663 60.339 0l170.667-170.667c16.661-16.661 16.661-43.678 0-60.339l-170.667-170.667c-16.661-16.661-43.678-16.661-60.339 0zM328.837 225.831c16.662 16.661 16.662 43.678 0 60.339l-140.497 140.497 140.497 140.497c16.662 16.663 16.662 43.677 0 60.34s-43.677 16.663-60.34 0l-170.667-170.667c-16.662-16.661-16.662-43.678 0-60.339l170.667-170.667c16.663-16.661 43.677-16.661 60.34 0zM609.045 766.358c-22.66 6.473-46.276-6.646-52.749-29.303l-170.666-597.334c-6.474-22.656 6.646-46.272 29.303-52.745 22.659-6.477 46.271 6.643 52.748 29.303l170.667 597.332c6.473 22.657-6.647 46.273-29.303 52.746z" />
<glyph unicode="&#xe936;" glyph-name="close-circle-filled" d="M512-0c235.639 0 426.667 191.027 426.667 426.667 0 235.642-191.027 426.667-426.667 426.667-235.642 0-426.667-191.025-426.667-426.667 0-235.639 191.025-426.667 426.667-426.667zM353.83 268.497c-16.662 16.661-16.662 43.678 0 60.339l97.831 97.83-97.827 97.829c-16.663 16.663-16.663 43.677 0 60.34s43.677 16.662 60.34 0l97.826-97.83 97.83 97.831c16.661 16.662 43.678 16.662 60.339 0s16.661-43.677 0-60.34l-97.83-97.83 97.835-97.83c16.661-16.666 16.661-43.678 0-60.339-16.661-16.666-43.678-16.666-60.339 0l-97.835 97.83-97.83-97.83c-16.663-16.661-43.677-16.661-60.34 0z" />
<glyph unicode="&#xe937;" glyph-name="chevron-double-left" d="M520.816 119.166c16.662 16.659 16.662 43.674 0 60.339l-247.164 247.162 247.164 247.164c16.662 16.662 16.662 43.677 0 60.34s-43.677 16.662-60.34 0l-247.164-247.164c-33.325-33.325-33.325-87.355 0-120.68l247.164-247.161c16.662-16.666 43.677-16.666 60.34 0zM787.501 119.166c16.666 16.659 16.666 43.674 0 60.339l-247.161 247.162 247.161 247.164c16.666 16.662 16.666 43.677 0 60.34-16.659 16.662-43.674 16.662-60.339 0l-247.162-247.164c-33.325-33.325-33.325-87.355 0-120.68l247.162-247.161c16.666-16.666 43.68-16.666 60.339 0z" />
<glyph unicode="&#xe938;" glyph-name="check" d="M883.503 670.17c16.661-16.663 16.661-43.677 0-60.34l-366.327-366.327c-49.988-49.988-131.031-49.988-181.018 0l-152.994 152.994c-16.662 16.661-16.662 43.678 0 60.339s43.677 16.661 60.34 0l152.993-152.994c16.663-16.661 43.678-16.661 60.34 0l366.327 366.328c16.661 16.662 43.678 16.662 60.339 0z" />
<glyph unicode="&#xe939;" glyph-name="center-align" d="M128 682.667c0 23.564 19.103 42.667 42.667 42.667h682.667c23.565 0 42.667-19.103 42.667-42.667s-19.102-42.667-42.667-42.667h-682.667c-23.564 0-42.667 19.103-42.667 42.667zM256 512c0 23.564 19.103 42.667 42.667 42.667h426.667c23.565 0 42.667-19.103 42.667-42.667s-19.102-42.667-42.667-42.667h-426.667c-23.564 0-42.667 19.102-42.667 42.667zM128 341.334c0 23.565 19.103 42.667 42.667 42.667h682.667c23.565 0 42.667-19.102 42.667-42.667s-19.102-42.667-42.667-42.667h-682.667c-23.564 0-42.667 19.102-42.667 42.667zM256 170.667c0 23.565 19.103 42.667 42.667 42.667h426.667c23.565 0 42.667-19.102 42.667-42.667s-19.102-42.667-42.667-42.667h-426.667c-23.564 0-42.667 19.102-42.667 42.667z" />
<glyph unicode="&#xe93a;" glyph-name="calendar" d="M298.667 853.334c23.564 0 42.667-19.103 42.667-42.667v-42.667h341.333v42.667c0 23.564 19.102 42.667 42.667 42.667s42.667-19.103 42.667-42.667v-42.667h42.667c70.694 0 128-57.308 128-128v-512c0-70.694-57.306-128-128-128h-597.333c-70.692 0-128 57.306-128 128v512c0 70.692 57.308 128 128 128h42.667v42.667c0 23.564 19.103 42.667 42.667 42.667zM682.667 682.667h-341.333v-42.667c0-23.564-19.103-42.667-42.667-42.667s-42.667 19.103-42.667 42.667v42.667h-42.667c-23.564 0-42.667-19.103-42.667-42.667v-128h682.667v128c0 23.564-19.102 42.667-42.667 42.667h-42.667v-42.667c0-23.564-19.102-42.667-42.667-42.667s-42.667 19.103-42.667 42.667v42.667zM170.667 426.667v-298.667c0-23.565 19.103-42.667 42.667-42.667h597.333c23.565 0 42.667 19.102 42.667 42.667v298.667h-682.667z" />
<glyph unicode="&#xe93b;" glyph-name="bookmark" d="M460.8 238.934l-136.533-102.4c-28.128-21.094-68.267-1.024-68.267 34.133v554.667c0 23.564 19.103 42.667 42.667 42.667h426.667c23.565 0 42.667-19.103 42.667-42.667v-554.667c0-35.157-40.141-55.228-68.267-34.133l-136.533 102.4c-30.34 22.754-72.060 22.754-102.4 0zM512 170.667l136.533-102.4c84.382-63.287 204.8-3.076 204.8 102.4v554.667c0 70.692-57.306 128-128 128h-426.667c-70.692 0-128-57.308-128-128v-554.667c0-105.476 120.418-165.687 204.8-102.4l136.533 102.4zM341.333 640c0 23.564 19.103 42.667 42.667 42.667h256c23.565 0 42.667-19.103 42.667-42.667s-19.102-42.667-42.667-42.667h-256c-23.564 0-42.667 19.103-42.667 42.667z" />
<glyph unicode="&#xe93c;" glyph-name="bold" d="M256 671.031c0 77.119 62.517 139.636 139.636 139.636h159.030c117.82 0 213.333-95.513 213.333-213.333 0-61.044-25.638-116.1-66.735-154.987 65.271-36.48 109.402-106.261 109.402-186.347 0-117.82-95.514-213.333-213.333-213.333h-202.667c-76.584 0-138.667 62.084-138.667 138.667v489.697zM395.636 725.334c-29.991 0-54.303-24.312-54.303-54.303v-201.697h213.333c70.694 0 128 57.308 128 128s-57.306 128-128 128h-159.030zM341.333 384v-202.667c0-29.457 23.878-53.333 53.333-53.333h202.667c70.694 0 128 57.306 128 128s-57.306 128-128 128h-256z" />
<glyph unicode="&#xe93d;" glyph-name="bold-light" d="M256 671.031c0 77.119 62.517 139.636 139.636 139.636h159.030c117.82 0 213.333-95.513 213.333-213.333 0-61.044-25.638-116.1-66.735-154.987 65.271-36.48 109.402-106.261 109.402-186.347 0-117.82-95.514-213.333-213.333-213.333h-202.667c-76.584 0-138.667 62.084-138.667 138.667v489.697zM395.636 725.334c-29.991 0-54.303-24.312-54.303-54.303v-201.697h213.333c70.694 0 128 57.308 128 128s-57.306 128-128 128h-159.030zM341.333 384v-202.667c0-29.457 23.878-53.333 53.333-53.333h202.667c70.694 0 128 57.306 128 128s-57.306 128-128 128h-256z" />
<glyph unicode="&#xe93e;" glyph-name="bank" d="M548.937 745.613c-23.343 11.204-50.509 11.204-73.852 0l-308.92-148.282-36.926 76.93 308.919 148.281c46.686 22.409 101.022 22.409 147.708 0l308.919-148.281c81.852-39.29 53.867-162.265-36.928-162.265h-691.692c-90.795 0-118.779 122.976-36.926 162.265l36.926-76.93h691.692l-308.919 148.282zM512 469.334c23.565 0 42.667-19.102 42.667-42.667v-256c0-23.565-19.102-42.667-42.667-42.667s-42.667 19.102-42.667 42.667v256c0 23.565 19.102 42.667 42.667 42.667zM213.333 469.334c23.564 0 42.667-19.102 42.667-42.667v-256c0-23.565-19.103-42.667-42.667-42.667s-42.667 19.102-42.667 42.667v256c0 23.565 19.103 42.667 42.667 42.667zM810.667 469.334c23.565 0 42.667-19.102 42.667-42.667v-256c0-23.565-19.102-42.667-42.667-42.667s-42.667 19.102-42.667 42.667v256c0 23.565 19.102 42.667 42.667 42.667zM85.333 42.667c0 23.565 19.103 42.667 42.667 42.667h768c23.565 0 42.667-19.102 42.667-42.667s-19.102-42.667-42.667-42.667h-768c-23.564 0-42.667 19.102-42.667 42.667z" />
<glyph unicode="&#xe93f;" glyph-name="arrow-right" d="M567.164 179.503c-16.661-16.661-16.661-43.678 0-60.339s43.678-16.661 60.339 0l247.164 247.164c33.323 33.323 33.323 87.356 0 120.678l-247.164 247.164c-16.661 16.662-43.678 16.662-60.339 0s-16.661-43.677 0-60.34l204.497-204.497h-600.994c-23.564 0-42.667-19.102-42.667-42.667s19.103-42.667 42.667-42.667h600.994l-204.497-204.497z" />
<glyph unicode="&#xe940;" glyph-name="plus-filled" d="M512-0c235.639 0 426.667 191.027 426.667 426.667 0 235.642-191.027 426.667-426.667 426.667-235.642 0-426.667-191.025-426.667-426.667 0-235.639 191.025-426.667 426.667-426.667zM512 640c23.565 0 42.667-19.103 42.667-42.667v-128h128c23.565 0 42.667-19.102 42.667-42.667s-19.102-42.667-42.667-42.667h-128v-128c0-23.565-19.102-42.667-42.667-42.667s-42.667 19.102-42.667 42.667v128h-128c-23.564 0-42.667 19.102-42.667 42.667s19.103 42.667 42.667 42.667h128v128c0 23.564 19.102 42.667 42.667 42.667z" />
<glyph unicode="&#xe941;" glyph-name="plus" d="M554.667 725.334c0 23.564-19.102 42.667-42.667 42.667s-42.667-19.103-42.667-42.667v-256h-256c-23.564 0-42.667-19.102-42.667-42.667s19.103-42.667 42.667-42.667h256v-256c0-23.565 19.102-42.667 42.667-42.667s42.667 19.102 42.667 42.667v256h256c23.565 0 42.667 19.102 42.667 42.667s-19.102 42.667-42.667 42.667h-256v256z" />
<glyph unicode="&#xe942;" glyph-name="checkmark-square" d="M810.667 391.104c0 23.552 19.115 42.667 42.667 42.667s42.667-19.115 42.667-42.667v-237.483c0-61.184-49.792-110.976-110.933-110.976h-546.133c-61.141 0-110.933 49.792-110.933 110.976v546.091c0 61.184 49.792 110.933 110.933 110.933h408.192c23.552 0 42.667-19.072 42.667-42.667 0-23.552-19.115-42.667-42.667-42.667h-408.192c-14.123 0-25.6-11.477-25.6-25.6v-546.091c0-14.123 11.477-25.643 25.6-25.643h546.133c14.123 0 25.6 11.52 25.6 25.643v237.483zM397.21 471.616c17.067 16.299 44.032 15.616 60.331-1.408l64.213-67.328 258.261 266.795c16.341 16.896 43.349 17.408 60.331 0.981 16.939-16.384 17.365-43.392 0.981-60.331l-289.152-298.667c-8.021-8.32-19.072-13.013-30.635-13.013h-0.171c-11.605 0.043-22.699 4.821-30.72 13.227l-94.848 99.413c-16.299 17.067-15.616 44.075 1.408 60.331z" />
<glyph unicode="&#xe943;" glyph-name="download" d="M469.453 423.429c-0.077 1.071-0.119 2.15-0.119 3.238v341.333c0 23.552 19.072 42.667 42.667 42.667s42.667-19.115 42.667-42.667v-341.325l102.4 76.791c18.859 14.208 45.611 10.325 59.733-8.533 14.165-18.859 10.325-45.611-8.533-59.733l-170.667-128c-7.552-5.675-16.597-8.533-25.6-8.533-8.576 0-17.152 2.603-24.533 7.765l-170.667 120.064c-19.285 13.568-23.936 40.192-10.368 59.435 13.568 19.285 40.149 23.936 59.435 10.368l103.586-72.87zM256 213.334v-42.667h512v42.667c0 23.467 19.2 42.667 42.667 42.667s42.667-19.2 42.667-42.667v-85.333c0-23.467-19.2-42.667-42.667-42.667h-597.333c-23.467 0-42.667 19.2-42.667 42.667v85.333c0 23.467 19.2 42.667 42.667 42.667s42.667-19.2 42.667-42.667z" />
<glyph unicode="&#xe944;" glyph-name="sort-circle-down" d="M401.072 469.334h221.823l-110.891-119.851-110.932 119.851zM706.010 433.536c19.712 21.248 24.832 52.267 13.099 78.976-11.349 26.027-35.627 42.155-63.317 42.155h-287.616c-27.691 0-51.968-16.128-63.317-42.155-4.181-9.515-6.187-19.627-6.187-29.568 0-18.048 6.613-35.755 19.243-49.365l143.787-155.392c13.056-14.123 31.36-22.187 50.304-22.187 18.901 0 37.248 8.064 50.261 22.187l143.744 155.349zM512 85.334c-188.203 0-341.333 153.131-341.333 341.333s153.131 341.333 341.333 341.333c188.203 0 341.333-153.131 341.333-341.333s-153.131-341.333-341.333-341.333zM512 853.334c-235.264 0-426.667-191.403-426.667-426.667s191.403-426.667 426.667-426.667c235.264 0 426.667 191.403 426.667 426.667s-191.403 426.667-426.667 426.667z" />
<glyph unicode="&#xe945;" glyph-name="eye-off" d="M512 362.667c-35.285 0-64 28.715-64 64 0 0.559 0.132 1.105 0.26 1.651v0c0.115 0.499 0.235 0.998 0.252 1.506l66.645-66.645c-0.508-0.021-1.007-0.137-1.502-0.256-0.55-0.128-1.097-0.256-1.655-0.256zM200.834 798.165c-16.683 16.683-43.648 16.683-60.331 0s-16.683-43.648 0-60.331l240.213-240.213c-11.776-21.717-18.048-45.824-18.048-70.955 0-82.347 66.989-149.333 149.331-149.333 25.131 0 49.237 6.272 70.955 18.048l240.213-240.213c8.32-8.32 19.243-12.501 30.165-12.501 10.927 0 21.85 4.181 30.17 12.501 16.683 16.683 16.683 43.648 0 60.331l-682.669 682.666zM521.378 213.436c-183.682-4.267-303.575 152.875-343.341 213.419 19.499 30.464 52.181 75.093 97.408 115.669l-60.203 60.245c-64.939-59.264-106.581-124.032-124.245-154.88-7.552-13.141-7.552-29.312 0-42.453 26.837-46.805 171.904-277.419 422.057-277.419 3.499 0 7.002 0.043 10.5 0.128 50.517 1.28 96.256 12.203 137.685 28.587l-67.413 67.413c-22.827-6.059-46.848-10.069-72.448-10.709zM500.467 725.188c254.938 7.979 405.338-229.845 432.559-277.29 7.509-13.141 7.509-29.312 0-42.453-17.707-30.848-59.354-95.616-124.288-154.88l-60.207 60.245c45.227 40.576 77.956 85.205 97.408 115.669-39.765 60.544-160.213 218.026-343.292 213.418-25.604-0.64-49.621-4.651-72.495-10.709l-67.411 67.413c41.472 16.384 87.17 27.307 137.726 28.587z" />
<glyph unicode="&#xe946;" glyph-name="eye" d="M512 362.667c-35.285 0-64 28.715-64 64s28.715 64 64 64c35.285 0 64-28.715 64-64s-28.715-64-64-64zM512.004 575.999c-82.347 0-149.335-66.986-149.335-149.332s66.989-149.333 149.335-149.333c82.342 0 149.333 66.987 149.333 149.333s-66.991 149.332-149.333 149.332zM521.374 213.436c-183.721-4.267-303.571 152.875-343.337 213.419 43.776 68.48 154.027 208.682 324.606 213.034 182.997 4.651 303.535-152.874 343.3-213.418-43.733-68.48-154.031-208.683-324.57-213.035zM933.026 447.889c-27.226 47.445-177.583 285.268-432.559 277.29-235.859-5.973-373.033-213.759-409.47-277.29-7.552-13.141-7.552-29.312 0-42.453 26.837-46.805 171.904-277.419 422.057-277.419 3.499 0 7.002 0.043 10.5 0.128 235.819 6.016 373.035 213.76 409.472 277.291 7.509 13.141 7.509 29.312 0 42.453z" />
<glyph unicode="&#xe947;" glyph-name="flag" d="M768 316.335c-16.896-7.552-50.133-17.664-106.667-17.664-47.957 0-89.643 16.341-133.76 33.621-49.579 19.413-100.864 39.509-164.907 39.509-45.099 0-80.043-5.419-106.667-12.715v348.502c16.896 7.552 50.219 17.749 106.667 17.749 47.957 0 89.643-16.341 133.76-33.621 49.579-19.413 100.864-39.509 164.907-39.509 40.021 0 75.776 4.309 106.667 12.8v-348.673zM822.101 738.992c-19.712 14.251-45.227 18.304-68.224 10.795-24.576-7.979-56.576-12.245-92.544-12.245-47.957 0-89.643 16.341-133.76 33.621-49.579 19.413-100.864 39.509-164.907 39.509-123.179 0-170.88-40.619-179.2-48.811-8.192-7.979-12.8-18.987-12.8-30.421v-646.102c0-23.595 19.072-42.667 42.667-42.667s42.667 19.072 42.667 42.667v183.381c16.853 7.509 50.048 17.749 106.667 17.749 47.957 0 89.643-16.341 133.76-33.621 49.579-19.413 100.864-39.509 164.907-39.509 77.184 0 124.715 16.128 151.083 29.653 25.259 13.099 40.917 38.528 40.917 66.389v368.769c0 23.893-11.648 46.635-31.232 60.843z" />
<glyph unicode="&#xe948;" glyph-name="link" d="M491.806 772.279c93.099 93.312 243.328 110.165 347.093 29.013 124.288-97.195 132.437-278.315 24.448-386.559l-60.715-60.8c-16.768-16.811-43.904-16.811-60.672 0-16.768 16.768-16.768 44.032 0 60.8l60.672 60.843c70.613 70.697 66.773 188.244-11.605 253.865-69.419 58.155-173.611 47.061-237.568-17.024l-54.315-54.4c-16.725-16.811-43.947-16.811-60.672 0-16.766 16.768-16.937 43.861 7.552 68.395l45.781 45.867zM567.151 542.164l-170.665-170.665c-16.683-16.683-16.683-43.648 0-60.331 8.32-8.32 19.243-12.501 30.165-12.501 10.921 0 21.844 4.181 30.164 12.501l170.667 170.667c16.683 16.683 16.683 43.647 0 60.329s-43.648 16.683-60.331 0zM523.942 196.416l-54.357-54.229c-64.041-63.872-168.446-74.88-237.908-16.981-78.464 65.365-82.347 182.528-11.648 253.056l60.8 60.587c16.768 16.725 16.768 43.861 0 60.629-16.768 16.681-43.989 16.681-60.8 0l-54.4-54.315c-92.672-92.416-108.928-241.067-28.8-344.491 96.896-125.141 278.656-133.589 387.113-25.472l60.8 60.587c16.768 16.768 16.768 43.861 0 60.629-16.811 16.768-43.989 16.768-60.8 0z" />
<glyph unicode="&#xe949;" glyph-name="list" d="M64 675.556c0 27.477 22.301 49.778 49.778 49.778s49.777-22.301 49.777-49.778c0-27.477-22.3-49.777-49.777-49.777s-49.778 22.3-49.778 49.777zM64 426.667c0 27.477 22.301 49.779 49.778 49.779s49.777-22.302 49.777-49.779c0-27.477-22.3-49.779-49.777-49.779s-49.778 22.302-49.778 49.779zM113.778 227.554c-27.477 0-49.778-22.298-49.778-49.775s22.301-49.779 49.778-49.779c27.477 0 49.777 22.302 49.777 49.779s-22.3 49.775-49.777 49.775zM309.677 476.446h603.756c25.634 0 46.592-20.958 46.592-46.592v-6.374c0-25.634-20.958-46.592-46.592-46.592h-603.756c-25.635 0-46.542 20.958-46.542 46.592v6.374c0 25.634 20.907 46.592 46.542 46.592zM913.434 227.554h-603.756c-25.635 0-46.542-20.954-46.542-46.592v-6.37c0-25.634 20.907-46.592 46.542-46.592h603.756c25.634 0 46.592 20.958 46.592 46.592v6.37c0 25.638-20.958 46.592-46.592 46.592zM309.677 725.334h603.756c25.634 0 46.592-20.957 46.592-46.592v-6.371c0-25.636-20.958-46.592-46.592-46.592h-603.756c-25.635 0-46.542 20.956-46.542 46.592v6.371c0 25.635 20.907 46.592 46.542 46.592z" />
<glyph unicode="&#xe94a;" glyph-name="move" d="M926.251 456.209l-128 128.553c-16.64 16.683-43.691 16.811-60.331 0.128-16.725-16.64-16.811-43.605-0.171-60.331l54.997-55.209h-238.080v238.548l55.083-55.339c8.32-8.363 19.285-12.544 30.251-12.544 10.88 0 21.803 4.139 30.123 12.416 16.683 16.64 16.768 43.648 0.128 60.331l-127.445 128c-8.064 8.064-17.365 12.203-30.251 12.587-11.307 0-22.144-4.48-30.123-12.459l-128.554-128c-16.683-16.64-16.768-43.648-0.128-60.331 16.597-16.683 43.605-16.768 60.373-0.128l55.21 54.997v-238.079h-238.592l55.339 55.081c16.725 16.64 16.811 43.648 0.171 60.331s-43.691 16.811-60.331 0.128l-128-127.444c-8.064-7.979-12.544-18.816-12.587-30.123s4.48-22.187 12.416-30.208l128-128.555c8.32-8.363 19.285-12.544 30.251-12.544 10.88 0 21.803 4.139 30.080 12.416 16.725 16.64 16.811 43.648 0.171 60.331l-54.997 55.253h238.080v-238.592l-55.082 55.339c-16.64 16.725-43.648 16.811-60.373 0.128-16.683-16.64-16.768-43.648-0.128-60.331l127.445-128c8.021-8.021 18.859-12.544 30.165-12.544h0.085c11.307 0 22.144 4.48 30.123 12.416l128.555 128c16.683 16.64 16.768 43.648 0.128 60.331-16.64 16.725-43.648 16.811-60.373 0.128l-55.211-54.955v238.080h238.592l-55.339-55.125c-16.725-16.64-16.811-43.605-0.171-60.331 8.32-8.363 19.285-12.544 30.251-12.544 10.88 0 21.803 4.139 30.080 12.416l128 127.445c8.064 7.979 12.544 18.816 12.587 30.123 0.043 11.349-4.437 22.187-12.416 30.208z" />
<glyph unicode="&#xe94b;" glyph-name="plus-alt" d="M810.667 469.334h-256v256c0 23.595-19.115 42.667-42.667 42.667s-42.667-19.072-42.667-42.667v-256h-256c-23.552 0-42.667-19.072-42.667-42.667s19.115-42.667 42.667-42.667h256v-256c0-23.595 19.115-42.667 42.667-42.667s42.667 19.072 42.667 42.667v256h256c23.552 0 42.667 19.072 42.667 42.667s-19.115 42.667-42.667 42.667z" />
<glyph unicode="&#xe94c;" glyph-name="radio-button-on" d="M512 298.667c-70.571 0-128 57.429-128 128s57.429 128 128 128c70.571 0 128-57.429 128-128s-57.429-128-128-128zM512 640c-117.632 0-213.333-95.701-213.333-213.333s95.701-213.333 213.333-213.333c117.632 0 213.333 95.701 213.333 213.333s-95.701 213.333-213.333 213.333zM512 85.334c-188.203 0-341.333 153.131-341.333 341.333s153.131 341.333 341.333 341.333c188.203 0 341.333-153.131 341.333-341.333s-153.131-341.333-341.333-341.333zM512 853.334c-235.264 0-426.667-191.403-426.667-426.667s191.403-426.667 426.667-426.667c235.264 0 426.667 191.403 426.667 426.667s-191.403 426.667-426.667 426.667z" />
<glyph unicode="&#xe94d;" glyph-name="search" d="M213.333 469.334c0 141.184 114.816 256 256 256s256-114.816 256-256c0-141.184-114.816-256-256-256s-256 114.816-256 256zM883.499 115.499l-144.853 144.896c44.928 57.771 72.021 130.176 72.021 208.939 0 188.203-153.131 341.333-341.333 341.333s-341.333-153.131-341.333-341.333c0-188.203 153.131-341.333 341.333-341.333 78.763 0 151.168 27.093 208.939 72.021l144.896-144.853c8.32-8.32 19.243-12.501 30.165-12.501s21.845 4.181 30.165 12.501c16.683 16.683 16.683 43.648 0 60.331z" />
<glyph unicode="&#xe94e;" glyph-name="star-line" d="M294.665 783.141l-67.409 5.029c-6.033 1.004-11.070 4.025-14.083 10.058l-26.156 62.381c-6.033 13.078-25.153 13.078-30.182 0l-26.156-62.381c-2.009-6.033-8.050-10.058-14.083-10.058l-67.418-5.029c-15.095-1.004-20.124-19.112-9.054-29.177l51.31-44.265c5.029-4.025 7.046-10.058 5.029-16.099l-16.099-66.406c-3.021-14.083 12.074-25.153 25.153-18.108l58.357 35.211c5.029 3.021 12.075 3.021 17.104 0l58.357-35.211c12.074-8.050 28.174 4.025 25.153 18.108l-16.099 66.406c-1.004 6.033 1.004 12.074 5.029 16.099l51.31 44.265c11.070 10.058 5.037 28.175-10.058 29.177h-0.005zM433.452 663.404h505.070c28.175 0 51.31 23.137 51.31 51.31 0 28.175-23.139 51.31-51.31 51.31h-505.070c-28.175 0-51.31-23.138-51.31-51.31 0-28.174 23.139-51.31 51.31-51.31v0zM294.665 465.213l-67.409 5.029c-6.033 0-11.071 4.023-14.083 10.057l-26.156 62.38c-6.033 13.078-25.153 13.078-30.182 0l-26.156-62.38c-2.009-6.034-8.050-10.057-14.083-10.057l-67.418-5.029c-15.095-1.006-20.124-19.112-9.054-29.177l51.31-44.266c5.029-4.027 7.046-10.057 5.029-16.099l-16.099-66.406c-3.021-14.084 12.074-25.154 25.153-18.11l58.357 35.211c5.029 3.021 12.074 3.021 17.104 0l58.357-35.211c12.074-8.049 28.174 4.027 25.153 18.11l-16.099 66.406c-1.004 6.031 1.004 12.072 5.029 16.099l51.31 44.266c11.070 9.051 5.037 27.169-10.058 29.177h-0.004zM938.522 447.096h-505.070c-28.175 0-51.31-23.139-51.31-51.31 0-28.175 23.139-51.31 51.31-51.31h505.070c28.175 0 51.31 23.139 51.31 51.31 0 28.167-23.146 51.31-51.31 51.31zM294.665 146.285l-67.409 5.029c-6.033 0-11.071 4.023-14.083 10.057l-26.156 62.38c-6.033 13.078-25.153 13.078-30.182 0l-26.156-62.38c-2.009-6.034-8.050-10.057-14.083-10.057l-67.418-5.029c-15.095-1.006-20.124-19.112-9.054-29.18l51.31-44.262c5.029-4.027 7.046-10.061 5.029-16.099l-16.099-66.406c-3.021-14.084 12.074-25.154 25.153-18.11l58.357 35.211c5.029 3.021 12.074 3.021 17.104 0l58.357-35.211c12.074-8.049 28.174 4.027 25.153 18.11l-16.099 66.406c-1.004 6.031 1.004 12.072 5.029 16.099l51.31 44.262c11.070 10.068 5.037 28.175-10.058 29.18h-0.004zM938.522 128.167h-505.070c-28.175 0-51.31-23.139-51.31-51.31 0-28.175 23.139-51.31 51.31-51.31h505.070c28.175 0 51.31 23.135 51.31 51.31 0 29.177-23.146 51.31-51.31 51.31z" />
<glyph unicode="&#xe94f;" glyph-name="star" d="M511.979 253.867c6.784 0 13.568-1.621 19.755-4.821l160.811-84.053-30.592 177.365c-2.432 13.909 2.219 28.075 12.373 37.931l129.536 125.269-179.328 26.112c-13.867 2.005-25.856 10.667-32.085 23.211l-80.469 161.877-80.469-161.877c-6.227-12.544-18.217-21.205-32.083-23.211l-179.328-26.112 129.536-125.269c10.155-9.856 14.805-24.021 12.373-37.931l-30.592-177.365 160.809 84.053c6.187 3.2 12.971 4.821 19.755 4.821zM749.291 44.587c-6.784 0-13.568 1.579-19.755 4.821l-217.557 113.664-217.555-113.664c-14.421-7.509-31.829-6.187-44.843 3.371-13.141 9.557-19.669 25.728-16.939 41.728l41.472 240.128-175.787 170.027c-11.733 11.307-15.915 28.288-10.923 43.776 4.949 15.488 18.347 26.752 34.432 29.099l243.243 35.328 108.67 218.709c14.421 29.013 62.037 29.013 76.459 0l108.672-218.709 243.243-35.328c16.085-2.347 29.483-13.611 34.432-29.099 4.992-15.488 0.811-32.469-10.923-43.776l-175.787-170.027 41.472-240.128c2.731-16-3.797-32.171-16.939-41.728-7.381-5.461-16.213-8.192-25.088-8.192z" />
<glyph unicode="&#xe950;" glyph-name="sort-down-alt" d="M511.979 213.334c-21.589 0-42.24 9.941-56.576 27.392l-179.753 217.515c-21.504 26.069-25.813 63.061-11.051 94.336 13.013 27.605 38.912 44.757 67.627 44.757h359.508c28.715 0 54.613-17.152 67.627-44.757 14.763-31.275 10.453-68.267-11.008-94.293l-179.797-217.557c-14.336-17.451-34.987-27.392-56.576-27.392z" />
<glyph unicode="&#xe951;" glyph-name="close" d="M602.492 426.658l274.739 274.747c25.024 25.024 25.024 65.471 0 90.494-25.020 25.024-65.468 25.024-90.492 0l-274.739-274.746-274.74 274.746c-25.023 25.024-65.469 25.024-90.492 0s-25.023-65.47 0-90.494l274.74-274.747-274.74-274.748c-25.023-25.020-25.023-65.468 0-90.492 12.479-12.48 28.863-18.752 45.246-18.752s32.767 6.272 45.246 18.752l274.74 274.748 274.739-274.748c12.48-12.48 28.864-18.752 45.248-18.752s32.768 6.272 45.244 18.752c25.024 25.024 25.024 65.472 0 90.492l-274.739 274.748z" />
<glyph unicode="&#xe952;" glyph-name="expand" d="M810.735 766.918c23.467-0.128 42.453-19.157 42.453-42.624l0.128-212.267c0.043-23.553-19.072-42.711-42.624-42.711h-0.043c-23.552 0-42.624 19.115-42.667 42.624l-0.085 110.295-140.416-140.417c-8.32-8.32-19.243-12.501-30.165-12.501-10.88 0-21.803 4.181-30.165 12.501-16.64 16.683-16.64 43.692 0 60.332l139.947 139.947-109.952 0.555c-23.595 0.128-42.624 19.371-42.496 42.88s19.243 42.453 42.667 42.453h0.213l213.205-1.067zM396.502 371.499c16.682 16.683 43.647 16.683 60.33 0s16.683-43.648 0-60.331l-140.458-140.459 110.293-0.043c23.595 0 42.667-19.115 42.667-42.709-0.043-23.552-19.115-42.624-42.667-42.624l-212.308 0.128c-23.467 0-42.496 18.987-42.624 42.453l-1.067 213.205c-0.128 23.552 18.901 42.752 42.453 42.88h0.213c23.466 0 42.538-18.944 42.667-42.453l0.555-109.995 139.947 139.947z" />
<glyph unicode="&#xe953;" glyph-name="eye-filled" d="M512 490.667c-35.285 0-64-28.715-64-64s28.715-64 64-64c35.285 0 64 28.715 64 64s-28.715 64-64 64zM512 277.334c-82.347 0-149.333 66.987-149.333 149.333s66.987 149.333 149.333 149.333c82.347 0 149.333-66.986 149.333-149.333s-66.987-149.333-149.333-149.333zM933.035 447.915c-27.264 47.445-177.579 285.269-432.597 277.29-235.819-6.016-373.035-213.802-409.472-277.29-7.509-13.184-7.509-29.312 0-42.496 26.88-46.805 171.947-277.419 422.101-277.419 3.456 0 6.955 0.043 10.496 0.128 235.819 6.016 373.035 213.803 409.472 277.291 7.509 13.184 7.509 29.312 0 42.496z" />
<glyph unicode="&#xe954;" glyph-name="info-filled" d="M512 554.667c-23.552 0-42.667 19.115-42.667 42.667s19.115 42.667 42.667 42.667c23.552 0 42.667-19.115 42.667-42.667s-19.115-42.667-42.667-42.667zM554.667 256c0-23.552-19.115-42.667-42.667-42.667s-42.667 19.115-42.667 42.667v213.333c0 23.552 19.115 42.667 42.667 42.667s42.667-19.115 42.667-42.667v-213.333zM512 853.334c-235.648 0-426.667-191.019-426.667-426.667s191.019-426.667 426.667-426.667c235.605 0 426.667 191.019 426.667 426.667s-191.061 426.667-426.667 426.667z" />
<glyph unicode="&#xe955;" glyph-name="keypad" d="M128 853.334h170.667c23.564 0 42.667-19.103 42.667-42.667v-170.667c0-23.564-19.103-42.667-42.667-42.667h-170.667c-23.564 0-42.667 19.103-42.667 42.667v170.667c0 23.564 19.103 42.667 42.667 42.667zM128 554.667h170.667c23.564 0 42.667-19.103 42.667-42.667v-170.667c0-23.564-19.103-42.667-42.667-42.667h-170.667c-23.564 0-42.667 19.103-42.667 42.667v170.667c0 23.564 19.103 42.667 42.667 42.667zM128 256h170.667c23.564 0 42.667-19.103 42.667-42.667v-170.667c0-23.564-19.103-42.667-42.667-42.667h-170.667c-23.564 0-42.667 19.103-42.667 42.667v170.667c0 23.564 19.103 42.667 42.667 42.667zM426.667 853.334h170.667c23.564 0 42.667-19.103 42.667-42.667v-170.667c0-23.564-19.103-42.667-42.667-42.667h-170.667c-23.564 0-42.667 19.103-42.667 42.667v170.667c0 23.564 19.103 42.667 42.667 42.667zM426.667 554.667h170.667c23.564 0 42.667-19.103 42.667-42.667v-170.667c0-23.564-19.103-42.667-42.667-42.667h-170.667c-23.564 0-42.667 19.103-42.667 42.667v170.667c0 23.564 19.103 42.667 42.667 42.667zM426.667 256h170.667c23.564 0 42.667-19.103 42.667-42.667v-170.667c0-23.564-19.103-42.667-42.667-42.667h-170.667c-23.564 0-42.667 19.103-42.667 42.667v170.667c0 23.564 19.103 42.667 42.667 42.667zM725.333 853.334h170.667c23.564 0 42.667-19.103 42.667-42.667v-170.667c0-23.564-19.103-42.667-42.667-42.667h-170.667c-23.564 0-42.667 19.103-42.667 42.667v170.667c0 23.564 19.103 42.667 42.667 42.667zM725.333 554.667h170.667c23.564 0 42.667-19.103 42.667-42.667v-170.667c0-23.564-19.103-42.667-42.667-42.667h-170.667c-23.564 0-42.667 19.103-42.667 42.667v170.667c0 23.564 19.103 42.667 42.667 42.667zM725.333 256h170.667c23.564 0 42.667-19.103 42.667-42.667v-170.667c0-23.564-19.103-42.667-42.667-42.667h-170.667c-23.564 0-42.667 19.103-42.667 42.667v170.667c0 23.564 19.103 42.667 42.667 42.667z" />
<glyph unicode="&#xe956;" glyph-name="more-horizontal" d="M128 426.667c0 47.104 38.229 85.333 85.333 85.333s85.333-38.229 85.333-85.333c0-47.104-38.229-85.333-85.333-85.333s-85.333 38.229-85.333 85.333zM512 512c-47.104 0-85.333-38.229-85.333-85.333s38.229-85.333 85.333-85.333c47.104 0 85.333 38.229 85.333 85.333s-38.229 85.333-85.333 85.333zM810.667 512c-47.104 0-85.333-38.229-85.333-85.333s38.229-85.333 85.333-85.333c47.104 0 85.333 38.229 85.333 85.333s-38.229 85.333-85.333 85.333z" />
<glyph unicode="&#xe957;" glyph-name="setting-filled" d="M511.983 490.667c-35.285 0-64-28.715-64-64s28.715-64 64-64c35.285 0 64 28.715 64 64s-28.715 64-64 64zM511.983 277.334c-82.347 0-149.332 66.987-149.332 149.333s66.985 149.333 149.332 149.333c82.347 0 149.333-66.987 149.333-149.333s-66.987-149.333-149.333-149.333zM934.042 498.39l-33.579 107.563c-8.021 25.813-25.515 46.677-49.195 58.795-23.083 11.819-49.323 13.824-73.899 5.632l-14.507-4.821c-22.869-7.723-48.384-3.456-67.968 11.264l-4.565 3.456c-18.645 13.995-29.696 36.821-29.611 60.971l0.085 11.904c0.085 27.093-10.24 52.48-29.141 71.467-18.304 18.389-42.496 28.544-68.181 28.587l-108.843 0.128c-53.503 0-97.193-44.459-97.407-99.243l-0.043-10.283c-0.085-25.515-11.819-49.579-31.275-64.427l-5.504-4.181c-21.888-16.64-50.261-21.376-75.819-12.672-23.808 8.149-49.28 6.4-71.808-4.949-23.040-11.648-40.064-31.872-47.957-56.917l-34.816-110.72c-16.512-52.565 11.221-107.691 63.147-125.483l6.997-2.389c22.101-7.552 39.893-26.837 47.744-51.669l2.347-7.168c9.344-27.563 6.101-56.619-9.856-79.232-30.72-43.648-21.376-105.216 20.864-137.216l88.405-67.157c16.981-12.885 37.077-19.627 57.856-19.627 4.907 0 9.856 0.341 14.805 1.109 26.112 4.096 49.023 18.389 64.468 40.277l9.856 13.995c14.165 20.139 35.797 32.043 60.928 32.725 25.045 1.408 48.939-11.648 63.872-33.152l5.035-7.339c15.317-22.101 38.187-36.608 64.384-40.832 25.984-4.139 51.883 2.304 73.003 18.261l87.936 66.389c42.411 31.957 52.139 93.739 21.675 137.771l-11.136 16c-13.995 20.224-18.091 46.549-11.008 70.485 7.723 26.112 27.008 46.592 51.627 54.869l8.576 2.859c50.645 16.939 78.677 73.003 62.507 124.971z" />
<glyph unicode="&#xe958;" glyph-name="strikethrough" d="M853.333 768h-682.667c-23.595 0-42.667-19.072-42.667-42.667v-128c0-23.595 19.072-42.667 42.667-42.667s42.667 19.072 42.667 42.667v85.333h256v-554.667h-85.333c-23.595 0-42.667-19.072-42.667-42.667s19.072-42.667 42.667-42.667h256c23.595 0 42.667 19.072 42.667 42.667s-19.072 42.667-42.667 42.667h-85.333v554.667h256v-85.333c0-23.595 19.072-42.667 42.667-42.667s42.667 19.072 42.667 42.667v128c0 23.595-19.072 42.667-42.667 42.667zM192 426.667h640c11.782 0 21.333-9.551 21.333-21.333v-42.667c0-11.782-9.551-21.333-21.333-21.333h-640c-11.782 0-21.333 9.551-21.333 21.333v42.667c0 11.782 9.551 21.333 21.333 21.333z" />
<glyph unicode="&#xe959;" glyph-name="text" d="M853.333 768h-682.667c-23.595 0-42.667-19.072-42.667-42.667v-128c0-23.595 19.072-42.667 42.667-42.667s42.667 19.072 42.667 42.667v85.333h256v-554.667h-85.333c-23.595 0-42.667-19.072-42.667-42.667s19.072-42.667 42.667-42.667h256c23.595 0 42.667 19.072 42.667 42.667s-19.072 42.667-42.667 42.667h-85.333v554.667h256v-85.333c0-23.595 19.072-42.667 42.667-42.667s42.667 19.072 42.667 42.667v128c0 23.595-19.072 42.667-42.667 42.667z" />
<glyph unicode="&#xe95a;" glyph-name="decrease-edit" d="M731.733 640h-652.8c-9.618 0-18.843 4.495-25.644 12.497s-10.622 18.854-10.622 30.17c0 11.316 3.821 22.168 10.622 30.17s16.026 12.497 25.644 12.497h652.8c9.617 0 18.842-4.495 25.643-12.497s10.624-18.854 10.624-30.17c0-11.316-3.823-22.168-10.624-30.17s-16.026-12.497-25.643-12.497zM731.733 512h-652.8c-9.618 0-18.843 4.495-25.644 12.497s-10.622 18.854-10.622 30.17c0 11.316 3.821 22.168 10.622 30.17s16.026 12.497 25.644 12.497h652.8c9.617 0 18.842-4.495 25.643-12.497s10.624-18.854 10.624-30.17c0-11.316-3.823-22.168-10.624-30.17s-16.026-12.497-25.643-12.497zM518.097 384h-438.859c-9.699 0-19.001 4.497-25.86 12.497s-10.711 18.854-10.711 30.17c0 11.315 3.853 22.17 10.711 30.17s16.16 12.497 25.86 12.497h438.859c9.698 0 18.999-4.497 25.856-12.497 6.861-8 10.714-18.854 10.714-30.17s-3.853-22.17-10.714-30.17c-6.857-8-16.158-12.497-25.856-12.497zM518.097 256h-438.859c-9.699 0-19.001 4.497-25.86 12.497s-10.711 18.854-10.711 30.17c0 11.315 3.853 22.17 10.711 30.17s16.16 12.497 25.86 12.497h438.859c9.698 0 18.999-4.497 25.856-12.497 6.861-8 10.714-18.854 10.714-30.17s-3.853-22.17-10.714-30.17c-6.857-8-16.158-12.497-25.856-12.497zM731.733 128h-652.8c-9.618 0-18.843 4.497-25.644 12.497s-10.622 18.854-10.622 30.17c0 11.315 3.821 22.17 10.622 30.17s16.026 12.497 25.644 12.497h652.8c9.617 0 18.842-4.497 25.643-12.497s10.624-18.854 10.624-30.17c0-11.315-3.823-22.17-10.624-30.17s-16.026-12.497-25.643-12.497zM912.081 170.71c-14.592 0-28.757 7.467-36.736 20.821l-101.333 170.667c-3.934 6.583-6.012 14.11-6.012 21.781 0 7.667 2.078 15.198 6.012 21.781l101.333 170.665c2.863 4.822 6.643 9.033 11.132 12.392s9.591 5.803 15.027 7.19c5.431 1.387 11.081 1.69 16.631 0.892 5.547-0.797 10.884-2.68 15.706-5.54s9.033-6.643 12.395-11.13c3.358-4.488 5.803-9.593 7.189-15.025s1.69-11.084 0.892-16.633c-0.798-5.549-2.679-10.886-5.542-15.708l-88.405-148.862 88.405-148.864c3.827-6.481 5.875-13.858 5.935-21.385 0.060-7.522-1.873-14.933-5.598-21.47-3.725-6.541-9.109-11.981-15.612-15.77s-13.892-5.79-21.419-5.803v0z" />
<glyph unicode="&#xe95b;" glyph-name="sort-down" d="M197.822 519.617l268.221-278.934c7.71-8.019 20.21-8.019 27.92 0l268.213 278.934c12.442 12.934 3.635 35.050-13.958 35.050h-536.435c-17.589 0-26.397-22.116-13.96-35.050z" />
<glyph unicode="&#xe95c;" glyph-name="increase-edit" d="M292.267 640h652.8c9.617 0 18.842 4.495 25.643 12.497s10.624 18.854 10.624 30.17c0 11.316-3.823 22.168-10.624 30.17s-16.026 12.497-25.643 12.497h-652.8c-9.618 0-18.843-4.495-25.644-12.497s-10.622-18.854-10.622-30.17c0-11.316 3.821-22.168 10.622-30.17s16.026-12.497 25.644-12.497zM292.267 512h652.8c9.617 0 18.842 4.495 25.643 12.497s10.624 18.854 10.624 30.17c0 11.316-3.823 22.168-10.624 30.17s-16.026 12.497-25.643 12.497h-652.8c-9.618 0-18.843-4.495-25.644-12.497s-10.622-18.854-10.622-30.17c0-11.316 3.821-22.168 10.622-30.17s16.026-12.497 25.644-12.497zM505.903 384h438.861c9.698 0 18.999 4.497 25.856 12.497 6.861 8 10.714 18.854 10.714 30.17s-3.853 22.17-10.714 30.17c-6.857 8-16.158 12.497-25.856 12.497h-438.861c-9.698 0-18.999-4.497-25.856-12.497-6.861-8-10.714-18.854-10.714-30.17s3.853-22.17 10.714-30.17c6.857-8 16.158-12.497 25.856-12.497zM505.903 256h438.861c9.698 0 18.999 4.497 25.856 12.497 6.861 8 10.714 18.854 10.714 30.17s-3.853 22.17-10.714 30.17c-6.857 8-16.158 12.497-25.856 12.497h-438.861c-9.698 0-18.999-4.497-25.856-12.497-6.861-8-10.714-18.854-10.714-30.17s3.853-22.17 10.714-30.17c6.857-8 16.158-12.497 25.856-12.497zM292.267 128h652.8c9.617 0 18.842 4.497 25.643 12.497s10.624 18.854 10.624 30.17c0 11.315-3.823 22.17-10.624 30.17s-16.026 12.497-25.643 12.497h-652.8c-9.618 0-18.843-4.497-25.644-12.497s-10.622-18.854-10.622-30.17c0-11.315 3.821-22.17 10.622-30.17s16.026-12.497 25.644-12.497zM111.917 170.71c14.592 0 28.757 7.467 36.736 20.821l101.333 170.667c3.935 6.583 6.013 14.11 6.013 21.781 0 7.667-2.078 15.198-6.013 21.781l-101.333 170.665c-2.86 4.822-6.642 9.033-11.13 12.392s-9.594 5.803-15.025 7.19c-5.431 1.387-11.084 1.69-16.632 0.892s-10.887-2.68-15.708-5.54c-4.821-2.86-9.033-6.643-12.392-11.13s-5.803-9.593-7.19-15.025c-1.387-5.432-1.69-11.084-0.892-16.633s2.68-10.886 5.541-15.708l88.405-148.862-88.405-148.864c-3.827-6.481-5.873-13.858-5.932-21.385-0.059-7.522 1.871-14.933 5.596-21.47 3.724-6.541 9.111-11.981 15.613-15.77s13.891-5.79 21.417-5.803v0z" />
<glyph unicode="&#xe95d;" glyph-name="list-ordered" d="M199.303 780.442c0 10.469-5.098 20.192-13.476 25.702s-18.843 6.019-27.661 1.349l-57.069-30.225c-14.061-7.447-19.778-25.595-12.769-40.535s24.089-21.014 38.15-13.567l15.932 8.438v-162.737h-28.623c-15.711 0-28.447-13.532-28.447-30.225s12.736-30.226 28.447-30.226h114.139c15.711 0 28.447 13.533 28.447 30.226s-12.736 30.225-28.447 30.225h-28.623v211.575zM369.778 735.112c0 25.036 19.103 45.333 42.667 45.333h483.555c23.565 0 42.667-20.297 42.667-45.333s-19.102-45.333-42.667-45.333h-483.555c-23.564 0-42.667 20.297-42.667 45.333zM369.778 432.888c0 25.037 19.103 45.333 42.667 45.333h483.555c23.565 0 42.667-20.297 42.667-45.333s-19.102-45.333-42.667-45.333h-483.555c-23.564 0-42.667 20.297-42.667 45.333zM369.778 130.667c0 25.037 19.103 45.333 42.667 45.333h483.555c23.565 0 42.667-20.297 42.667-45.333s-19.102-45.333-42.667-45.333h-483.555c-23.564 0-42.667 20.297-42.667 45.333zM137.921 307.768l0.15 0.239c0.244 0.371 0.727 1.088 1.443 2.031 1.457 1.92 3.725 4.587 6.733 7.232 5.998 5.291 14.014 9.801 24.433 9.801 11.112 0 17.46-4.147 21.343-8.828 4.339-5.227 7.265-13.252 7.265-22.75 0-27.345-15.311-41.233-45.513-65.122l-1.993-1.57c-27.088-21.389-66.442-52.463-66.442-113.237 0-8.017 2.997-15.706 8.332-21.376 5.335-5.666 12.57-8.853 20.115-8.853h113.944c15.711 0 28.451 13.534 28.451 30.229 0 16.687-12.736 30.221-28.447 30.221h-77.201c7.491 11.925 19.985 22.473 37.213 36.096l2.655 2.099c26.78 21.107 65.78 51.857 65.78 111.514 0 22.080-6.731 44.954-21.484 62.733-15.209 18.325-37.388 29.295-64.017 29.295-27.321 0-47.753-12.254-60.766-23.727-6.498-5.73-11.377-11.447-14.69-15.812-1.67-2.197-2.978-4.105-3.929-5.564-0.477-0.73-0.867-1.357-1.17-1.852l-0.392-0.657-0.148-0.252-0.062-0.107-0.041-0.073c-8.152-14.272-3.887-32.883 9.543-41.545 13.33-8.602 30.666-4.181 38.895 9.835zM113.784 323.776l-24.302 15.701c0 0-0.013-0.021 24.302-15.701z" />
<glyph unicode="&#xe95e;" glyph-name="quote-left" d="M938.667 85.334h-365.333v392.371c0 101.42 10.88 290.295 365.333 290.295v-83.318c-170.415 0-191.748-116.098-182.345-206.978h182.345v-392.371zM450.667 477.705h-182.333c-9.4 90.88 11.92 206.978 182.333 206.978v83.318c-354.44 0-365.333-188.876-365.333-290.295v-392.371h365.333v392.371z" />
<glyph unicode="&#xe95f;" glyph-name="slider-horizontal" d="M331.805 748.533c-13.425-9.772-25.198-28.392-30.058-77.108-0.041-0.412-0.088-0.823-0.141-1.234-2.206-17.066-2.939-37.135-2.939-61.629v-363.791c0-24.495 0.733-44.561 2.939-61.628 0.053-0.41 0.1-0.823 0.141-1.233 4.86-48.717 16.633-67.337 30.058-77.107 16.172-11.772 45.983-19.469 107.051-19.469h146.287c61.069 0 90.88 7.697 107.051 19.469 13.427 9.771 25.199 28.39 30.059 77.107 0.021 0.222 0.047 0.439 0.073 0.661 0.021 0.192 0.043 0.38 0.068 0.572 2.206 17.067 2.94 37.133 2.94 61.628v363.791c0 24.495-0.734 44.563-2.94 61.629-0.051 0.411-0.098 0.822-0.141 1.234-4.86 48.716-16.631 67.336-30.059 77.108-16.171 11.77-45.982 19.468-107.051 19.468h-146.287c-61.068 0-90.879-7.697-107.051-19.468zM281.588 817.526c40.057 29.155 94.726 35.808 157.268 35.808h146.287c62.541 0 117.21-6.653 157.269-35.808 42.65-31.044 58.893-79.692 64.691-137.018 2.846-22.372 3.563-46.554 3.563-71.946v-363.791c0-25.391-0.717-49.57-3.563-71.945-5.798-57.327-22.042-105.971-64.691-137.015-40.060-29.158-94.729-35.81-157.269-35.81h-146.287c-62.542 0-117.211 6.652-157.268 35.81-42.651 31.044-58.892 79.689-64.692 137.015-2.848 22.374-3.564 46.554-3.564 71.945v363.791c0 25.391 0.716 49.574 3.564 71.946 5.799 57.327 22.040 105.974 64.692 137.018zM128 810.667c23.564 0 42.667-19.103 42.667-42.667v-640c0-23.565-19.103-42.667-42.667-42.667s-42.667 19.102-42.667 42.667v640c0 23.564 19.103 42.667 42.667 42.667zM896 810.667c23.565 0 42.667-19.103 42.667-42.667v-640c0-23.565-19.102-42.667-42.667-42.667s-42.667 19.102-42.667 42.667v640c0 23.564 19.102 42.667 42.667 42.667z" />
<glyph unicode="&#xe960;" glyph-name="text-alt" d="M128 150.754v-108.087h768v108.087h-768zM374.857 377.741h274.287l49.37-118.895h115.2l-260.57 594.487h-82.287l-260.571-594.487h115.2l49.371 118.895zM512 746.326l102.583-271.305h-205.167l102.583 271.305z" />
<glyph unicode="&#xe961;" glyph-name="upload" d="M778.906 598.751c-14.131 0-27.955-1.28-41.421-3.482-33.587 109.824-137.626 189.798-260.864 189.798-150.477 0-272.384-119.194-272.384-266.189 0-13.108 1.024-26.010 2.918-38.708-7.287 0.905-14.622 1.365-21.965 1.382-102.298 0-185.19-80.998-185.19-180.992s82.893-181.094 185.19-181.094h224.41v204.8h-128l230.4 256.001 230.4-256.001h-128v-204.8h164.506c135.322 0 245.094 107.315 245.094 239.616 0 132.403-109.773 239.668-245.094 239.668v0z" />
<glyph unicode="&#xe962;" glyph-name="edit" d="M762.069 614.567l47.561 47.563-104.832 104.835-47.565-47.563 104.836-104.835zM702.046 554.544l-104.836 104.835-392.169-392.17-24.128-128.964 128.963 24.132 392.17 392.167zM872.188 719.617c31.748-31.749 31.748-83.225 0-114.975l-511.58-511.581c-6.052-6.050-13.793-10.133-22.206-11.708l-202.8-37.943c-29.326-5.487-55.011 20.198-49.524 49.527l37.943 202.799c1.574 8.414 5.655 16.154 11.707 22.204l511.581 511.582c31.748 31.749 83.226 31.749 114.974 0l109.905-109.905zM853.756 42.667h-342.178c-56.324 0-56.324 85.333 0 85.333h342.178c56.324 0 56.324-85.333 0-85.333z" />
<glyph unicode="&#xe963;" glyph-name="filter" d="M170.667 640h682.667c23.565 0 42.667 19.103 42.667 42.667s-19.102 42.667-42.667 42.667h-682.667c-23.564 0-42.667-19.103-42.667-42.667s19.103-42.667 42.667-42.667zM384 128h256c23.565 0 42.667 19.102 42.667 42.667s-19.102 42.667-42.667 42.667h-256c-23.564 0-42.667-19.102-42.667-42.667s19.103-42.667 42.667-42.667zM725.333 384h-426.667c-23.564 0-42.667 19.102-42.667 42.667s19.103 42.667 42.667 42.667h426.667c23.565 0 42.667-19.102 42.667-42.667s-19.102-42.667-42.667-42.667z" />
<glyph unicode="&#xe964;" glyph-name="refresh" d="M160.75 668.998c117.714 171.075 345.985 234.946 538.279 141.157 211.793-103.298 299.746-358.732 196.45-570.525-103.3-211.793-358.733-299.742-570.525-196.446-85.16 41.536-152.591 108.937-194.208 191.881-10.568 21.060-2.060 46.703 19.001 57.271 21.062 10.564 46.702 2.061 57.27-19.004 33.297-66.364 87.15-120.188 155.345-153.451 169.436-82.637 373.779-12.275 456.42 157.158 82.637 169.434 12.275 373.78-157.158 456.419-162.406 79.21-356.884 17.852-445.516-136.583h72.642c23.564 0 42.667-19.102 42.667-42.667s-19.103-42.665-42.667-42.665h-170.667c-23.564 0-42.667 19.101-42.667 42.665v170.667c0 23.564 19.102 42.667 42.667 42.667s42.667-19.102 42.667-42.667v-55.877z" />
<glyph unicode="&#xe965;" glyph-name="task" d="M256 853.334h512c94.255 0 170.667-76.41 170.667-170.667v-512c0-94.255-76.412-170.667-170.667-170.667h-512c-94.257 0-170.667 76.412-170.667 170.667v512c0 94.257 76.41 170.667 170.667 170.667zM256 768c-47.128 0-85.333-38.205-85.333-85.333v-512c0-47.13 38.205-85.333 85.333-85.333h512c47.13 0 85.333 38.204 85.333 85.333v512c0 47.128-38.204 85.333-85.333 85.333h-512zM328.837 670.17l12.497-12.497 55.163 55.164c16.663 16.662 43.678 16.662 60.34 0s16.661-43.677 0-60.34l-85.333-85.333c-16.663-16.662-43.677-16.662-60.34 0l-42.667 42.667c-16.662 16.663-16.662 43.677 0 60.34s43.677 16.662 60.34 0zM554.615 597.334c-23.565 0.029-42.645 19.156-42.615 42.72s19.157 42.643 42.718 42.614l169.873-0.211c23.561-0.029 42.641-19.156 42.611-42.72s-19.153-42.643-42.718-42.613l-169.869 0.211zM554.615 384c-23.565 0.030-42.645 19.157-42.615 42.718 0.030 23.565 19.157 42.645 42.718 42.615l169.873-0.209c23.561-0.030 42.641-19.157 42.611-42.722s-19.153-42.641-42.718-42.611l-169.869 0.209zM554.615 170.667c-23.565 0.030-42.645 19.157-42.615 42.718 0.030 23.565 19.157 42.645 42.718 42.615l169.873-0.209c23.561-0.030 42.641-19.157 42.611-42.722s-19.153-42.641-42.718-42.611l-169.869 0.209zM328.837 456.837l12.497-12.497 55.163 55.164c16.663 16.663 43.678 16.663 60.34 0 16.661-16.661 16.661-43.678 0-60.339l-85.333-85.333c-16.663-16.661-43.677-16.661-60.34 0l-42.667 42.667c-16.662 16.661-16.662 43.678 0 60.339s43.677 16.661 60.34 0zM328.837 243.503l12.497-12.497 55.163 55.164c16.663 16.661 43.678 16.661 60.34 0s16.661-43.678 0-60.339l-85.333-85.333c-16.663-16.661-43.677-16.661-60.34 0l-42.667 42.667c-16.662 16.661-16.662 43.678 0 60.339s43.677 16.661 60.34 0z" />
<glyph unicode="&#xe966;" glyph-name="heart-clock" d="M463.434 291.067c0 163.866 133.488 297.347 297.347 297.347 69.302 0 132.803-23.894 183.328-63.843 2.048 11.949 2.733 24.24 2.733 36.531-0.342 74.423-29.36 143.726-81.939 195.962-102.419 100.715-265.952 104.132-374.163 11.264-50.182 44.037-114.026 67.933-181.284 67.933-73.746 0-142.706-28.674-194.934-80.909-107.195-107.536-107.195-282.675 0-390.541l320.231-320.902c15.021-14.678 34.483-22.877 55.651-22.877 21.158 0 40.966 8.189 55.642 22.877l21.51 21.853c-63.843 54.272-104.122 135.184-104.122 225.318v-0.013zM760.829 520.136c-126.317 0-229.078-102.762-229.078-229.078 0-126.314 102.762-229.075 229.078-229.075 126.314 0 229.075 102.762 229.075 229.075-0.010 126.326-102.762 229.078-229.075 229.078v0zM825.347 256.929h-64.518c-18.781 0-34.144 15.363-34.144 34.144v67.258c0 19.12 15.363 34.141 34.144 34.141 18.778 0 34.141-15.021 34.141-34.141v-33.117h30.387c18.778 0 34.141-15.363 34.141-34.141-0.006-18.781-15.373-34.144-34.15-34.144z" />
<glyph unicode="&#xe967;" glyph-name="microphone" d="M896 490.667h-32v64c0 93.356-37.085 182.889-103.098 248.901s-155.546 103.099-248.902 103.099c-93.357 0-182.89-37.086-248.901-103.099s-103.099-155.545-103.099-248.901v-64h-32c-25.461 0-49.879-10.115-67.882-28.118s-28.118-42.422-28.118-67.882v-128c0-25.459 10.114-49.878 28.118-67.882s42.421-28.118 67.882-28.118h32c0-25.459 10.114-49.878 28.118-67.882s42.421-28.118 67.882-28.118c25.461 0 49.879 10.115 67.882 28.118s28.118 42.422 28.118 67.882v320c0.010 15.363-3.67 30.502-10.726 44.147-7.059 13.648-17.286 25.398-29.828 34.272s-27.028 14.608-42.244 16.72c-15.217 2.112-30.718 0.541-45.202-4.579 6.751 71.368 39.876 137.653 92.9 185.898s122.134 74.98 193.82 74.98c71.686 0 140.797-26.735 193.821-74.98s86.147-114.529 92.899-185.898c-14.336 4.621-29.555 5.802-44.432 3.45s-28.992-8.173-41.203-16.989c-12.211-8.816-22.179-20.381-29.094-33.76-6.912-13.379-10.582-28.198-10.71-43.261v-320c0.042-15.334 3.76-30.438 10.838-44.042s17.312-25.315 29.846-34.15c12.534-8.835 27.002-14.541 42.192-16.637 15.194-2.096 30.666-0.522 45.123 4.589v-69.76h-99.2c-4.576-23.254-14.429-45.152-28.8-64h160c8.486 0 16.627 3.373 22.627 9.373s9.373 14.141 9.373 22.627v192h32c25.459 0 49.878 10.115 67.882 28.118s28.118 42.422 28.118 67.882v128c0 25.459-10.115 49.878-28.118 67.882s-42.422 28.118-67.882 28.118v0zM544 138.667h-64c-25.459 0-49.878-10.115-67.882-28.118s-28.118-42.422-28.118-67.882c0-25.459 10.115-49.878 28.118-67.882s42.422-28.118 67.882-28.118h64c25.459 0 49.878 10.115 67.882 28.118s28.118 42.422 28.118 67.882c0 25.459-10.115 49.878-28.118 67.882s-42.422 28.118-67.882 28.118z" />
<glyph unicode="&#xe968;" glyph-name="handshake" d="M575.562 787.769c9.142 0 16.566 7.398 16.566 16.547v83.646c0 9.173-7.418 16.58-16.566 16.58-9.155 0-16.56-7.398-16.56-16.58v-83.646c0.006-9.148 7.405-16.547 16.56-16.547zM351.53 748.808c3.235-4.412 8.253-6.785 13.354-6.785 3.392 0 6.835 1.070 9.789 3.218 7.363 5.408 8.957 15.775 3.549 23.139l-49.507 67.448c-5.408 7.365-15.758 8.991-23.139 3.566-7.382-5.408-8.958-15.775-3.55-23.139l49.505-67.448zM772.97 768.377c-5.424-7.365-3.83-17.741 3.549-23.139 2.954-2.156 6.381-3.218 9.773-3.218 5.091 0 10.134 2.356 13.37 6.785l49.504 67.448c5.427 7.365 3.818 17.741-3.549 23.14-7.414 5.433-17.757 3.799-23.139-3.566zM363.251 596.222c0.074-0.067 0.157-0.125 0.25-0.224l91.741-77.459c2.157-1.808 3.898-3.987 5.795-6.045 1.37-0.614 2.755-1.162 3.942-2.157 6.8-5.731 15.526-8.403 24.432-7.731 8.96 0.771 17.062 4.938 22.784 11.722 6.189 6.253 8.874 13.594 8.55 21.696-0.39 9.731-5.075 19.277-12.522 25.53l-46.49 39.27c-0.051 0.035-0.077 0.035-0.093 0.067l-67.008 56.624c-14.109 11.91-35.309 10.102-47.261-4.056-11.91-14.108-10.102-35.316 4.022-47.259l11.856-9.978zM537.091 579.051c9.962-11.597 16.058-26.176 16.704-41.635 0.739-17.485-5.408-33.642-17.283-45.453-10.467-12.525-26.55-20.835-44.342-22.342-1.914-0.157-3.862-0.25-5.763-0.25-2.387 0-4.726 0.365-7.082 0.614 0.016-0.282 0.125-0.547 0.141-0.829 0.755-17.459-5.341-33.642-17.168-45.533-12.458-14.739-30.624-22.403-49.101-22.595 2.762-18.32-1.76-37.68-14.582-52.934-9.29-10.947-21.414-17.955-34.378-21.274 4.147-7.856 6.768-16.515 7.523-25.654 1.491-17.766-4.006-35.018-15.459-48.544-11.389-13.526-27.462-21.821-45.238-23.312-1.932-0.16-3.865-0.25-5.764-0.25-15.684 0-30.705 5.466-42.814 15.651l-51.532 43.427-176.828-157.744 182.219-199.962 242.478 232.605c3.882 3.376 9.133 4.794 14.074 3.706 33.955-6.758 62.563-11.421 89.443-9.536 0.282 0.032 0.522 0.064 0.806 0.064 30.528 2.282 58.794 13.072 89.946 39.338l167.6 151.898c0 0 22.384 20.538 6.269 38.733-8.624 9.754-19.101 16.845-30.688 20.538 17.626 24.208 17.235 58.307-2.918 82.166-8.643 10.278-19.971 17.552-32.646 21.117 14.061 23.696 12.384 54.774-6.362 77.053-10.349 12.266-24.509 20.186-40.266 22.733 7.024 21.291 5.168 47.5-12.259 63.947-17.6 16.58-45.642-0.224-45.642-0.224l-119.088-95.518zM674.877 171.669c-25.389-21.45-49.507-34.278-73.626-41.181l227.933-199.43 160.682 199.19-181.741 162.138-133.248-120.717zM469.264 676.475c-8.029-12.001-10.192-30.108 1.562-40.020 0.032-0.033 0.048-0.066 0.074-0.091l41.254-34.834 68.218 54.708-63.123 29.46c-28.099 14.564-42.906-1.609-47.981-9.223l-0.003-0.001zM259.827 421.349l30.97-26.109c0.075-0.067 0.091-0.192 0.174-0.25l35.083-29.584c14.157-11.846 35.315-10.013 47.226 4.054 11.878 14.109 10.086 35.315-4.058 47.261l-66.003 55.792c-0.050 0.032-0.108 0.032-0.174 0.067l-0.075 0.090c-6.784 5.709-15.51 8.378-24.369 7.664-8.958-0.736-17.061-4.918-22.817-11.718-11.877-14.134-10.069-35.334 4.039-47.267h0.003zM294.836 566.76c-5.723-6.816-8.468-15.491-7.713-24.49 0.755-8.96 4.918-17.027 11.703-22.736l25.232-21.322c0.074-0.067 0.141-0.067 0.189-0.125l66.371-56.061c14.074-11.875 35.347-10.102 47.309 4.022 6.144 6.221 8.832 13.597 8.467 21.699-0.422 9.728-5.091 19.251-12.525 25.498l-91.878 77.581c-14.176 11.834-35.244 10.010-47.153-4.064l-0.001-0.003zM226.209 318.616l57.611-48.579c6.818-5.731 15.385-8.435 24.452-7.731 8.941 0.774 17.002 4.938 22.717 11.686 5.782 6.851 8.534 15.494 7.779 24.461-0.755 8.976-4.918 17.062-11.702 22.8l-22.294 18.778c-0.033 0.035-0.066 0.035-0.091 0.067-0.017 0.032-0.017 0.032-0.033 0.067l-35.665 30.074c-14.092 11.504-34.992 9.629-46.804-4.355-11.894-14.099-10.102-35.299 4.031-47.267h-0.001z" />
<glyph unicode="&#xe969;" glyph-name="play" horiz-adv-x="956" d="M834.355 541.645c94.126-54.342 94.126-190.196 0-244.538l-582.382-336.237c-94.123-54.347-211.776 13.585-211.776 122.266v672.481c0 108.683 117.654 176.61 211.776 122.269l582.382-336.24z" />
</font>
</defs>
</svg>
